↑↓torrent.by
Поиск
Логин: Регистрация
Пароль: Восстановить пароль

Игра на выживание [01-12 из 12] (2020) WEBRip от GeneralFilm

Скачать igra-na-vyzhivanie-01-12-iz-2020-webrip-ot-generalfilm.torrent
U Магнитная ссылка Размер: 6.53 GB Раздают: 44 Качают: 47 Добавлен: 2020-09-20 05:12:43
Игра на выживание [01-12 из 12] (2020) WEBRip от GeneralFilm

Оригинальное название: Игра на выживание
Год выпуска: 2020
Жанр:  Приключения, триллер, драма
Выпущено: Россия, Амедиа Продакшн, KarGo Films
Режиссер: Карен Оганесян
В ролях: Александра Бортич, Алексей Чадов, Игорь Верник, Линда Лапиньш, Владимир Верёвочкин, Беник Аракелян, Анастасия Тодореску, Валерий Скорокосов, Юлия Волкова, Мария Кулик, Михаил Кремер, Илья Хвостиков, Дмитрий Кривошеев, Кристина Поли, Ульяна Лукина, Ирина Воронова, Дэвид Пилия, Дарья Макарова, Юрий Архангельский, Сергей Жарков, Андрей Филиппак, Никита Кологривый, Александр Марушев, Сергей Дьяков, Глеб Бочков, Андрей Быков, Алдар Когаев, Эрдэм Шагдуров

О фильме: Чем может обернуться обычное телевизионное реалити-шоу для его участников? 16 человек отправляются в дикую сибирскую тайгу, чтобы побороться за один миллион евро. Правила просты: никакой еды, личных вещей, электричества, связи и цивилизации на сотни километров вокруг. Победит тот, кто дойдет до конца. Но ТВ проект превращается в смертельно опасную игру, где главным призом становится ЖИЗНЬ… Что это? Больная фантазия телевизионщиков и сценарий? Кто за этим стоит? И кто из героев сможет выжить, не потеряв свою человечность?

Качество: WEBRip
Видео: XviD build 73, 720x304 (2.35:1), 25.000 fps, ~ 1350 Kbps (~ 0.243 bit/pixel)
Аудио: 48.0 kHz, MP3, 2/0 ch, 192 kbps
Продолжительность: 12 x ~ 00:51:00
Перевод: Не требуется [Русский]
Cубтитры: нет

Внимание! Присутствует ненормативная лексика

Релиз:


[+] MediaInfo

General
Complete name               : D:RazdachiIgra.Na.Vyzhivanie.2020.WEBRip.GeneralFilme01.Igra.Na.Vyzhivanie.avi
Format                      : AVI
Format/Info                 : Audio Video Interleave
File size                   : 558 MiB
Duration                    : 51 min 1 s
Overall bit rate            : 1 529 kb/s
Writing application         : VirtualDubMod 1.5.10.3 | www.virtualdub-fr.org || (build 2550/release)
Writing library             : VirtualDubMod build 2550/release

Video
ID                          : 0
Format                      : MPEG-4 Visual
Format profile              : Advanced Simple@L5
Format settings             : BVOP1
Format settings, BVOP       : 1
Format settings, QPel       : No
Format settings, GMC        : No warppoints
Format settings, Matrix     : Default (H.263)
Codec ID                    : XVID
Codec ID/Hint               : XviD
Duration                    : 51 min 1 s
Bit rate                    : 1 327 kb/s
Width                       : 720 pixels
Height                      : 304 pixels
Display aspect ratio        : 2.35:1
Frame rate                  : 25.000 FPS
Color space                 : YUV
Chroma subsampling          : 4:2:0
Bit depth                   : 8 bits
Scan type                   : Progressive
Compression mode            : Lossy
Bits/(Pixel*Frame)          : 0.243
Stream size                 : 484 MiB (87%)
Writing library             : XviD 73

Audio
ID                          : 1
Format                      : MPEG Audio
Format version              : Version 1
Format profile              : Layer 3
Codec ID                    : 55
Codec ID/Hint               : MP3
Duration                    : 51 min 1 s
Bit rate mode               : Constant
Bit rate                    : 192 kb/s
Channel(s)                  : 2 channels
Sampling rate               : 48.0 kHz
Frame rate                  : 41.667 FPS (1152 SPF)
Compression mode            : Lossy
Stream size                 : 70.1 MiB (13%)
Alignment                   : Aligned on interleaves
Interleave, duration        : 40  ms (1.00 video frame)
Interleave, preload duratio : 504  ms
Writing library             : LAME3.99r
Encoding settings           : -m s -V 4 -q 2 -lowpass 18.6 -b 192



Скриншоты:
[+] Всего файлов в раздаче - 12:
e01.Igra.Na.Vyzhivanie.avi557.96 MB
e02.Igra.Na.Vyzhivanie.avi558.04 MB
e03.Igra.Na.Vyzhivanie.avi557.75 MB
e04.Igra.Na.Vyzhivanie.avi558.06 MB
e05.Igra.Na.Vyzhivanie.avi558.39 MB
e06.Igra.Na.Vyzhivanie.avi557.55 MB
e07.Igra.Na.Vyzhivanie.avi557.89 MB
e08.Igra.Na.Vyzhivanie.avi557.44 MB
e09.Igra.Na.Vyzhivanie.avi556.65 MB
e10.Igra.Na.Vyzhivanie.avi556.94 MB
e11.Igra.Na.Vyzhivanie.avi557.50 MB
e12.Igra.Na.Vyzhivanie.avi556.81 MB

Показать еще раздачи по запросу игра:
2020-09-22 U Игра на выживание [01-12 из 12] (2020) WEBRip от GeneralFilm | КПК 2.64 GB ↑ 46 ↓ 36
2020-09-20 U КВН-2020. Высшая лига. 1/4 финала. Игра третья [20.09] (2020) SATRip 1.46 GB ↑ 707 ↓ 246
2020-09-19 U Игра на выживание [01-12 из 12] (2020) WEBRip от Files-x 7.51 GB ↑ 73 ↓ 92
2020-09-18 U Игра на выживание [01-12 из 12] (2020) WEBRip-AVC от Files-х 7.47 GB ↑ 53 ↓ 319
2020-09-18 U Игра на выживание [01-12 из 12] (2020) WEBRip 7.03 GB ↑ 94 ↓ 78
2020-09-18 U Игра на выживание [01-12 из 12] (2020) WEBRip 720p от Files-x 12.78 GB ↑ 25 ↓ 164
2020-09-18 U Игра на выживание [01-12 из 12] (2020) WEBRip 1080p 18.78 GB ↑ 156 ↓ 496

Отзывы
Зарегистрируйтесь чтобы добавить комментарий.
Загрузите программу
  uTorrent.exe
Обратная связь
Copyleft ©