↑↓torrent.by
Поиск
Логин: Регистрация
Пароль: Восстановить пароль

Билл и Тед / Білл і Тед / Bill & Ted Face the Music (2020) WEB-DL 1080p | Line | UKR

Скачать bill-i-ted-b-ll-face-the-music-2020-web-dl-1080p-line-ukr.torrent
U Магнитная ссылка Размер: 5.74 GB Раздают: 59 Качают: 4 Добавлен: 2020-09-21 07:25:34
Билл и Тед / Білл і Тед / Bill & Ted Face the Music (2020) WEB-DL 1080p | Line | UKR

Название: Билл и Тед
Оригинальное название: Bill & Ted Face the Music
Год выхода: 2020
Жанр: комедия, фантастика, музыка, фэнтези

Режиссер: Дин Паризо

В ролях: Киану Ривз, Алекс Уинтер, Кристен Шаал, Самара Уивинг, Бригитт Ланди-Пейн, Уильям Сэдлер, Энтони Кэрриган, Эринн Хэйс, Джейма Мейс, Хэл Лэндон мл.

О фильме:
Билл и Тед всю жизнь верили в пророчество, что их рок-н-ролл спасёт вселенную от гибели, но великую песню так и не сочинили. Когда глобальная катастрофа уже на носу, и в мире происходят смещения пространства и времени, дочь Руфуса Келли забирает приятелей в будущее, где они узнают, что на спасение мира у них остаётся 77 минут. И тогда они отправляются в будущее, чтобы стырить песню… у самих себя. А в это время их дочери Теа и Билли решают помочь папашам и, позаимствовав у Келли машину времени, начинают собирать великих музыкантов разных эпох.

Страна: США, Канада, Италия
Продолжительность: 01:31:55
Перевод: Профессиональный дублированный | Line | (Украинский)

Файл
Кодек: x.264
Качество: WEB-DL 1080p | Amazon
Видео: AVC, 1920x800 (2.40:1), 23.976 fps, 8112 kb/s
Аудио 1: AC3, 48.0 kHz, 2 ch, 192 kb/s | UKR
Аудио 2: E-AC3, 48.0 kHz, 6 ch, 640 kb/s | ENG
Субтитры: Английские


[+] MI
General
Unique ID                                : 208189081840902605927688469827308858477 (0x9C9FC238EE2A3A62A5DEC072108DAC6D)
Complete name                            : Bill.and.Ted.Face.the.Music.(2020).AMZN.WEB-DL.1080p.Ukr.Eng.mkv
Format                                   : Matroska
Format version                           : Version 4
File size                                : 5.74 GiB
Duration                                 : 1 h 31 min
Overall bit rate                         : 8 947 kb/s
Encoded date                             : UTC 2020-09-13 16:09:48
Writing application                      : mkvmerge v8.3.0 ('Over the Horizon') 64bit
Writing library                          : libebml v1.3.1 + libmatroska v1.4.2

Video
ID                                       : 1
Format                                   : AVC
Format/Info                              : Advanced Video Codec
Format profile                           : High@L4
Format settings                          : CABAC / 4 Ref Frames
Format settings, CABAC                   : Yes
Format settings, ReFrames                : 4 frames
Codec ID                                 : V_MPEG4/ISO/AVC
Duration                                 : 1 h 31 min
Bit rate mode                            : Constant
Bit rate                                 : 8 112 kb/s
Nominal bit rate                         : 10 000 kb/s
Width                                    : 1 920 pixels
Height                                   : 800 pixels
Display aspect ratio                     : 2.40:1
Frame rate mode                          : Constant
Frame rate                               : 23.976 (24000/1001) FPS
Color space                              : YUV
Chroma subsampling                       : 4:2:0
Bit depth                                : 8 bits
Scan type                                : Progressive
Bits/(Pixel*Frame)                       : 0.220
Stream size                              : 5.21 GiB (91%)
Default                                  : Yes
Forced                                   : No
Color range                              : Limited
Color primaries                          : BT.709
Transfer characteristics                 : BT.709
Matrix coefficients                      : BT.709

Audio #1
ID                                       : 2
Format                                   : AC-3
Format/Info                              : Audio Coding 3
Commercial name                          : Dolby Digital
Codec ID                                 : A_AC3
Duration                                 : 1 h 31 min
Bit rate mode                            : Constant
Bit rate                                 : 192 kb/s
Channel(s)                               : 2 channels
Channel layout                           : L R
Sampling rate                            : 48.0 kHz
Frame rate                               : 31.250 FPS (1536 SPF)
Bit depth                                : 16 bits
Compression mode                         : Lossy
Stream size                              : 126 MiB (2%)
Title                                    : DUB [Line]
Language                                 : Ukrainian
Service kind                             : Complete Main
Default                                  : Yes
Forced                                   : No

Audio #2
ID                                       : 3
Format                                   : E-AC-3
Format/Info                              : Enhanced AC-3
Commercial name                          : Dolby Digital Plus
Codec ID                                 : A_EAC3
Duration                                 : 1 h 31 min
Bit rate mode                            : Constant
Bit rate                                 : 640 kb/s
Channel(s)                               : 6 channels
Channel layout                           : L R C LFE Ls Rs
Sampling rate                            : 48.0 kHz
Frame rate                               : 31.250 FPS (1536 SPF)
Compression mode                         : Lossy
Stream size                              : 421 MiB (7%)
Language                                 : English
Service kind                             : Complete Main
Default                                  : No
Forced                                   : No

Text #1
ID                                       : 4
Format                                   : UTF-8
Codec ID                                 : S_TEXT/UTF8
Codec ID/Info                            : UTF-8 Plain Text
Duration                                 : 1 h 31 min
Bit rate                                 : 63 b/s
Count of elements                        : 1583
Stream size                              : 42.1 KiB (0%)
Title                                    : Full
Language                                 : English
Default                                  : No
Forced                                   : No

Text #2
ID                                       : 5
Format                                   : UTF-8
Codec ID                                 : S_TEXT/UTF8
Codec ID/Info                            : UTF-8 Plain Text
Duration                                 : 1 h 31 min
Bit rate                                 : 68 b/s
Count of elements                        : 1733
Stream size                              : 45.4 KiB (0%)
Title                                    : SDH
Language                                 : English
Default                                  : No
Forced                                   : No

Menu
00:00:00.000                             : :Studio Logo
00:00:33.000                             : :Prologue
00:01:56.000                             : :Wedding
00:06:32.000                             : :Couples' Therapy
00:09:53.000                             : :Respecting the situation
00:20:54.000                             : :Plagiarizer
00:25:49.000                             : :Putting plans in place
00:30:05.000                             : :Assembling a band
00:41:57.000                             : :More members
00:47:09.000                             : :Hell
00:51:42.000                             : :Face the music
00:59:05.000                             : :The last member
01:10:00.000                             : :The prophesy
01:24:15.000                             : :End Credits
01:29:38.000                             : :One last thing to do



Скриншоты:
[+] Всего файлов в раздаче - 1:
Bill.and.Ted.Face.the.Music.(2020).AMZN.WEB-DL.1080p.Ukr.Eng.mkv5.74 GB

Показать еще раздачи по запросу билл:
2020-09-26 U Билл и Тед / Bill & Ted Face the Music (2020) WEB-DLRip от Scarabey | iTunes 1.44 GB ↑ 73 ↓ 8
2020-09-25 U Билл и Тед / Bill & Ted Face the Music (2020) WEB-DLRip-AVC от MediaBit | iTunes 1.82 GB ↑ 121 ↓ 17
2020-09-24 U Билл и Тед / Bill & Ted Face the Music (2020) UHD WEB-DL 2160p от селезень | 4K | SDR | iTunes 10.36 GB ↑ 98 ↓ 73
2020-09-24 U Билл и Тед / Bill & Ted Face the Music (2020) WEB-DLRip | iTunes 1.46 GB ↑ 160 ↓ 65
2020-09-24 U Билл и Тед / Bill & Ted Face the Music (2020) WEB-DL 720p от селезень | iTunes 2.75 GB ↑ 46 ↓ 35
2020-09-24 U Билл и Тед / Bill & Ted Face the Music (2020) WEB-DL 1080p от селезень | iTunes 5.87 GB ↑ 50 ↓ 30
2020-09-15 U Билл и Тед / Білл і Тед / Bill & Ted Face the Music (2020) WEB-DLRip | Line | UKR 1.46 GB ↑ 40 ↓ 8

Отзывы
Зарегистрируйтесь чтобы добавить комментарий.
Загрузите программу
  uTorrent.exe
Обратная связь
Copyleft ©