↑↓torrent.by
Поиск
Логин: Регистрация
Пароль: Восстановить пароль

Шугалей 2 (2020) WEB-DLRip от GeneralFilm

Скачать shugaley-2-2020-web-dlrip-ot-generalfilm.torrent
U Магнитная ссылка Размер: 1.46 GB Раздают: 31 Качают: 7 Добавлен: 2020-09-21 07:25:42
Шугалей 2 (2020) WEB-DLRip от GeneralFilm

Оригинальное название: Шугалей 2
Год выпуска: 2020
Жанр:  Детектив, приключения
Выпущено: Россия, Тунис, «Кино альянс»
Режиссер: Максим Бриус
В ролях: Кирилл Полухин, Олег Абалян, Сергей Яценюк, Геннадий Яковлев

О фильме: Фильм основан на реальных событиях и рассказывает о российском социологе Максиме Шугалее и его коллеге, переводчике Самере Суэйфане, похищенных в мае 2019 года в Ливии и незаконно удерживаемых в тюрьме в Триполи. Российского социолога Максима Шугалея и его коллегу, переводчика Самера Суэйфана все еще удерживают в ливийской тюрьме «Митига». Больше года заключенных избивают, привязывают к столбам на палящем солнце, а карцеры в тюрьме настолько малы, что спать в них можно только сидя. Несмотря на все, Шугалей продолжает работать. Он иногда получает информацию извне и пытается разобраться в действиях террористических организаций. Собранные ученым данные опасны для ливийских боевиков, и они хотят дискредитировать Шугалея: по их заданию журналисты используют все ресурсы, чтобы выставить Максима шпионом. В это время Шугалей находит способ передать полученную информацию на родину. Тогда боевики предлагают Максиму сделку: если он признает себя шпионом и покается, то сможет вернуться домой и снова увидеть родных.

Качество: WEB-DLRip
Видео: XviD build 73, 720x304 (2.35:1), 25.000 fps, 1476 Kbps (0.270 bit/pixel)
Аудио: 48.0 kHz, MP3, 2/0 ch, 192 kbps
Продолжительность: 02:04:19
Перевод: Не требуется [Русский]

Релиз:


[+] MediaInfo
General
Complete name               : D:RazdachiShugalej.2.2020.WEB-DLRip.GeneralFilm.avi
Format                      : AVI
Format/Info                 : Audio Video Interleave
File size                   : 1.46 GiB
Duration                    : 2 h 4 min
Overall bit rate            : 1 678 kb/s
Writing application         : VirtualDubMod 1.5.10.3 | www.virtualdub-fr.org || (build 2550/release)
Writing library             : VirtualDubMod build 2550/release

Video
ID                          : 0
Format                      : MPEG-4 Visual
Format profile              : Advanced Simple@L5
Format settings             : BVOP1
Format settings, BVOP       : 1
Format settings, QPel       : No
Format settings, GMC        : No warppoints
Format settings, Matrix     : Default (H.263)
Codec ID                    : XVID
Codec ID/Hint               : XviD
Duration                    : 2 h 4 min
Bit rate                    : 1 476 kb/s
Width                       : 720 pixels
Height                      : 304 pixels
Display aspect ratio        : 2.35:1
Frame rate                  : 25.000 FPS
Color space                 : YUV
Chroma subsampling          : 4:2:0
Bit depth                   : 8 bits
Scan type                   : Progressive
Compression mode            : Lossy
Bits/(Pixel*Frame)          : 0.270
Stream size                 : 1.28 GiB (88%)
Writing library             : XviD 73

Audio
ID                          : 1
Format                      : MPEG Audio
Format version              : Version 1
Format profile              : Layer 3
Codec ID                    : 55
Codec ID/Hint               : MP3
Duration                    : 2 h 4 min
Bit rate mode               : Constant
Bit rate                    : 192 kb/s
Channel(s)                  : 2 channels
Sampling rate               : 48.0 kHz
Frame rate                  : 41.667 FPS (1152 SPF)
Compression mode            : Lossy
Stream size                 : 171 MiB (11%)
Alignment                   : Aligned on interleaves
Interleave, duration        : 40  ms (1.00 video frame)
Interleave, preload duratio : 504  ms
Writing library             : LAME3.99r
Encoding settings           : -m s -V 4 -q 2 -lowpass 18.6 -b 192



Скриншоты:
[+] Всего файлов в раздаче - 1:
Shugalej.2.2020.WEB-DLRip.GeneralFilm.avi1.46 GB

Показать еще раздачи по запросу шугалей:
2020-09-30 U Шугалей 2 (2020) WEB-DLRip от ELEKTRI4KA | iTunes 1.47 GB ↑ 60 ↓ 21
2020-09-21 U Шугалей 2 (2020) WEB-DLRip-AVC 2.18 GB ↑ 47 ↓ 6
2020-09-19 U Шугалей 2 (2020) WEB-DLRip от ELEKTRI4KA | IVI 1.47 GB ↑ 127 ↓ 48
2020-09-19 U Шугалей 2 (2020) WEB-DL 1080p от ExKinoRay 4.61 GB ↑ 135 ↓ 63
2020-09-09 U Шугалей 2 (2020) HDTVRip-AVC от ExKinoRay 745.65 MB ↑ 67 ↓ 19
2020-09-08 U Шугалей 2 (2020) HDTVRip от ExKinoRay 747.37 MB ↑ 76 ↓ 29
2020-09-07 U Шугалей 2 (2020) HDTVRip от Files-x 1.46 GB ↑ 159 ↓ 52

Отзывы
Зарегистрируйтесь чтобы добавить комментарий.
Загрузите программу
  uTorrent.exe
Обратная связь
Copyleft ©