↑↓torrent.by
Поиск
Логин: Регистрация
Пароль: Восстановить пароль

Шугалей 2 (2020) WEB-DLRip-AVC

Скачать shugaley-2-2020-web-dlrip-avc.torrent
U Магнитная ссылка Размер: 2.18 GB Раздают: 47 Качают: 6 Добавлен: 2020-09-21 07:25:55
Шугалей 2 (2020) WEB-DLRip-AVC

Название: Шугалей 2
Год выхода: 2020
Жанр: Боевик, приключения

Режиссер: Максим Бриус
В ролях: Кирилл Полухин, Олег Абалян, Дмитрий Ткаченко, Дмитрий Сутырин, Сергей Яценюк, Александр Барановский, Виктор Янишевский, Николай Замула, Антон Сычёв, Дмитрий Луговкин, Николай Иванов (VII), Виталий Такс, Самвел Мужикян, Руслан Барабанов, Сайдо Курбанов, Эльдар Джелилов, Геннадий Яковлев, Владислав Комаров, Юрий Дормидонтов, Константин Фильченков, Сейтабла Меметов, Виталий Таганов, Эрнест Тимерханов, Станислав Дёмин, Андрей Смелов, Олег Метелев, Екатерина Решетникова/

О фильме:
Российский социолог Максим Шугалей и его коллега-переводчик Самер Суэйфан до сих пор содержатся в ливийской тюрьме. Уже больше года они ежедневно подвергаются пыткам и психологическому насилию. Находясь в заключении, Максим Шугалей сталкивается с разными людьми, которые оказываются, иногда неосознанно, источниками информации о ситуации в Триполи. Слушая их истории, социолог буквально по крупицам собирает ценную информацию, которая может стать решающей для всего мирового сообщества.

Страна: Россия
Студия: Триикс Медиа,  Кино альянс
Продолжительность: 02:04:19
Перевод: Не требуется

Файл
Качество: WEB-DLRip-AVC
Формат: MKV
Кодек: MPEG-4 AVC
Видео: 1024x428 (2,40:1), 25 fps, MPEG-4 AVC, 2314 Кbps avg, 0.211 bit/pixel
Аудио: AC3, 48 kHz, 2 ch, ~192.00 kbps avg | русский |
Субтитры: Отсутствуют

*** Реклама, любого вида, отсутствует.


[+] Инфо-файл
Общее
Уникальный идентификатор                 : 5715390498229554909863306628607524591 (0x44CBE81F43946FAD7927912FBB83EEF)
Полное имя                               : Shugalei.2.2020.WEB-DLRip.x264.mkv
Формат                                   : Matroska
Версия формата                           : Version 4
Размер файла                             : 2,18 Гбайт
Продолжительность                        : 2 ч. 4 м.
Общий поток                              : 2 506 Кбит/сек
Название фильма                          : Шугалей 2 (2020)
Дата кодирования                         : UTC 2020-09-19 13:08:00
Программа кодирования                    : mkvmerge v47.0.0 ('Black Flag') 64-bit
Библиотека кодирования                   : libebml v1.3.10 + libmatroska v1.5.2
Обложка                                  : Yes
Attachments                              : cover.jpg

Видео
Идентификатор                            : 1
Формат                                   : AVC
Формат/Информация                        : Advanced Video Codec
Профиль формата                          : High@L4.1
Настройки формата                        : CABAC / 10 Ref Frames
Параметр CABAC формата                   : Да
Параметр RefFrames формата               : 10 кадров
Идентификатор кодека                     : V_MPEG4/ISO/AVC
Продолжительность                        : 2 ч. 4 м.
Битрейт                                  : 2 314 Кбит/сек
Ширина                                   : 1 024 пикселя
Высота                                   : 428 пикселей
Соотношение сторон                       : 2,40:1
Режим частоты кадров                     : Постоянный
Частота кадров                           : 25,000 кадров/сек
Цветовое пространство                    : YUV
Субдискретизация насыщенности            : 4:2:0
Битовая глубина                          : 8 бит
Тип развёртки                            : Прогрессивная
Бит/(Пиксели*Кадры)                      : 0.211
Размер потока                            : 2,01 Гбайт (92%)
Заголовок                                : #stillet
Библиотека кодирования                   : x264 core 152 r2851bm ba24899
Настройки программы                      : cabac=1 / ref=10 / deblock=1:-2:-2 / analyse=0x3:0x113 / me=umh / subme=11 / psy=1 / psy_rd=1.00:0.15 / mixed_ref=1 / me_range=32 / chroma_me=1 / trellis=2 / 8x8dct=1 / cqm=0 / deadzone=21,11 / fast_pskip=0 / chroma_qp_offset=-3 / threads=8 / lookahead_threads=3 / sliced_threads=0 / nr=0 / decimate=0 / interlaced=0 / bluray_compat=0 / constrained_intra=0 / bframes=9 / b_pyramid=2 / b_adapt=2 / b_bias=0 / direct=3 / weightb=1 / open_gop=0 / weightp=2 / keyint=250 / keyint_min=24 / scenecut=40 / intra_refresh=0 / rc=2pass / mbtree=0 / bitrate=2314 / ratetol=1.0 / qcomp=0.60 / qpmin=0 / qpmax=69 / qpstep=4 / cplxblur=20.0 / qblur=0.5 / ip_ratio=1.40 / pb_ratio=1.30 / aq=1:1.00
Язык                                     : English
Default                                  : Да
Forced                                   : Нет

Аудио
Идентификатор                            : 2
Формат                                   : AC-3
Формат/Информация                        : Audio Coding 3
Коммерческое название                    : Dolby Digital
Идентификатор кодека                     : A_AC3
Продолжительность                        : 2 ч. 4 м.
Вид битрейта                             : Постоянный
Битрейт                                  : 192 Кбит/сек
Каналы                                   : 2 канала
Channel layout                           : L R
Частота                                  : 48,0 КГц
Частота кадров                           : 31,250 кадров/сек (1536 SPF)
Метод сжатия                             : С потерями
Размер потока                            : 171 Мбайт (8%)
Язык                                     : Russian
Service kind                             : Complete Main
Default                                  : Да
Forced                                   : Нет




Скриншоты:
[+] Всего файлов в раздаче - 1:
Shugalei.2.2020.WEB-DLRip.x264.mkv2.18 GB

Показать еще раздачи по запросу шугалей:
2020-09-30 U Шугалей 2 (2020) WEB-DLRip от ELEKTRI4KA | iTunes 1.47 GB ↑ 60 ↓ 21
2020-09-21 U Шугалей 2 (2020) WEB-DLRip от GeneralFilm 1.46 GB ↑ 31 ↓ 7
2020-09-19 U Шугалей 2 (2020) WEB-DLRip от ELEKTRI4KA | IVI 1.47 GB ↑ 127 ↓ 48
2020-09-19 U Шугалей 2 (2020) WEB-DL 1080p от ExKinoRay 4.61 GB ↑ 135 ↓ 63
2020-09-09 U Шугалей 2 (2020) HDTVRip-AVC от ExKinoRay 745.65 MB ↑ 67 ↓ 19
2020-09-08 U Шугалей 2 (2020) HDTVRip от ExKinoRay 747.37 MB ↑ 76 ↓ 29
2020-09-07 U Шугалей 2 (2020) HDTVRip от Files-x 1.46 GB ↑ 159 ↓ 52

Отзывы
Зарегистрируйтесь чтобы добавить комментарий.
Загрузите программу
  uTorrent.exe
Обратная связь
Copyleft ©