↑↓torrent.by
Поиск
Логин: Регистрация
Пароль: Восстановить пароль

Билл и Тед / Bill & Ted Face the Music (2020) WEB-DLRip-AVC от MediaBit | iTunes

Скачать bill-i-ted-face-the-music-2020-web-dlrip-avc-ot-mediabit-itunes.torrent
U Магнитная ссылка Размер: 1.82 GB Раздают: 162 Качают: 19 Добавлен: 2020-09-25 10:25:00
Билл и Тед / Bill & Ted Face the Music (2020) WEB-DLRip-AVC от MediaBit | iTunes

Билл и Тед / Bill & Ted Face the Music

Название:  Билл и Тед
Оригинальное название:  Bill & Ted Face the Music
Год выхода: 2020
Жанр: Комедия, фантастика, музыка, фэнтези
Режиссер:  Дин Паризо

В ролях:   Киану Ривз, Алекс Уинтер, Кристен Шаал, Самара Уивинг, Бригитт Ланди-Пейн, Уильям Сэдлер, Энтони Кэрриган, Эринн Хэйс, Джейма Мейс, Хэл Лэндон мл.

Описание:   Музыканты-раздолбаи Билл и Тед всю жизнь верили в пророчество, что их рок-н-ролл спасёт вселенную от гибели. И вот, глобальная катастрофа уже на носу, и на спасение мира у парней остается чуть больше часа. И тогда они решают отправиться в будущее, чтобы стырить песню… у самих себя. Вместе с папашами в путешествие отправляются уже взрослые дочери Билла и Теда. Смогут ли папины дочки выдержать напор отцовского креатива?
 
Страна:  США, Канада, Италия
Студия:  Hammerstone Studios, Dial 9, Dugan Entertainment
Продолжительность:  01:31:55
Перевод:  Дублированный - iTunes

Информация о файле:
Кодек: AVC
Формат: MKV
Качество: WEB-DLRip-AVC
Видео: MPEG-4 AVC, 1024x426 (2.40:1), 23.976 fps, 1 999 kb/s, 0.191
Аудио RU:  AC3, 6 ch, 48 kHz, 384 kbps  
Аудио EN:  AC3, 6 ch, 48 kHz, 448 kbps  
Субтитры:  Русские (Full), английские
Навигация по главам: Есть

Релиз: &


[+] MediaInfo
x264 info: frame I:1256  Avg QP:14.69  size: 67691 [url=/tag/1/][/url]
x264 info: frame P:34845 Avg QP:17.89  size: 20273 [url=/tag/1/][/url]
x264 info: frame B:96145 Avg QP:19.99  size:  6098 [url=/tag/1/][/url]
x264 info: consecutive B-frames:  2.4%  3.6% 10.3% 65.7%  8.4%  7.6%  0.9%  0.7%  0.1%  0.0%  0.0%  0.1%  0.1% [url=/tag/1/][/url]
=========================================== [url=/tag/1/][/url]
General [url=/tag/1/][/url]
Unique ID                                : 146085214352594294253338712407965400577 (0x6DE6FD26EFFF4C6CC5002050215F7E01) [url=/tag/1/][/url]
Complete name                            : D:uTorrentРипы_от_wolf1245_MediaBitBill and Ted Face the Music 2020 from wolf1245 & MediaBit.mkv [url=/tag/1/][/url]
Format                                   : Matroska [url=/tag/1/][/url]
Format version                           : Version 4 [url=/tag/1/][/url]
File size                                : 1.82 GiB [url=/tag/1/][/url]
Duration                                 : 1 h 31 min [url=/tag/1/][/url]
Overall bit rate                         : 2 832 kb/s [url=/tag/1/][/url]
Movie name                               : Bill and Ted Face the Music 2020 from wolf1245 & MediaBit [url=/tag/1/][/url]
Encoded date                             : UTC 2020-09-24 10:27:17 [url=/tag/1/][/url]
Writing application                      : mkvmerge v50.0.0 ('Awakenings') 64-bit [url=/tag/1/][/url]
Writing library                          : libebml v1.4.0 + libmatroska v1.6.2 [url=/tag/1/][/url]
[url=/tag/1/][/url]
Video [url=/tag/1/][/url]
ID                                       : 1 [url=/tag/1/][/url]
Format                                   : AVC [url=/tag/1/][/url]
Format/Info                              : Advanced Video Codec [url=/tag/1/][/url]
Format profile                           : High@L4.1 [url=/tag/1/][/url]
Format settings                          : CABAC / 12 Ref Frames [url=/tag/1/][/url]
Format settings, CABAC                   : Yes [url=/tag/1/][/url]
Format settings, Reference frames        : 12 frames [url=/tag/1/][/url]
Codec ID                                 : V_MPEG4/ISO/AVC [url=/tag/1/][/url]
Duration                                 : 1 h 31 min [url=/tag/1/][/url]
Bit rate                                 : 1 999 kb/s [url=/tag/1/][/url]
Width                                    : 1 024 pixels [url=/tag/1/][/url]
Height                                   : 426 pixels [url=/tag/1/][/url]
Display aspect ratio                     : 2.40:1 [url=/tag/1/][/url]
Frame rate mode                          : Constant [url=/tag/1/][/url]
Frame rate                               : 23.976 (24000/1001) FPS [url=/tag/1/][/url]
Color space                              : YUV [url=/tag/1/][/url]
Chroma subsampling                       : 4:2:0 [url=/tag/1/][/url]
Bit depth                                : 8 bits [url=/tag/1/][/url]
Scan type                                : Progressive [url=/tag/1/][/url]
Bits/(Pixel*Frame)                       : 0.191 [url=/tag/1/][/url]
Stream size                              : 1.28 GiB (71%) [url=/tag/1/][/url]
Title                                    : wolf1245 & MediaBit [url=/tag/1/][/url]
Writing library                          : x264 core 157 r2958 57baac4 [url=/tag/1/][/url]
Encoding settings                        : cabac=1 / ref=12 / deblock=1:-2:-2 / analyse=0x3:0x133 / me=umh / subme=11 / psy=1 / psy_rd=1.02:0.05 / mixed_ref=1 / me_range=48 / chroma_me=1 / trellis=2 / 8x8dct=1 / cqm=0 / deadzone=21,11 / fast_pskip=0 / chroma_qp_offset=-3 / threads=10 / lookahead_threads=2 / sliced_threads=0 / nr=0 / decimate=0 / interlaced=0 / bluray_compat=0 / constrained_intra=0 / bframes=12 / b_pyramid=2 / b_adapt=2 / b_bias=0 / direct=3 / weightb=1 / open_gop=0 / weightp=2 / keyint=240 / keyint_min=24 / scenecut=40 / intra_refresh=0 / rc_lookahead=60 / rc=2pass / mbtree=0 / bitrate=1999 / ratetol=1.0 / qcomp=0.60 / qpmin=0 / qpmax=69 / qpstep=4 / cplxblur=20.0 / qblur=0.5 / vbv_maxrate=50000 / vbv_bufsize=62500 / nal_hrd=none / filler=0 / ip_ratio=1.40 / pb_ratio=1.30 / aq=2:0.90 [url=/tag/1/][/url]
Language                                 : English [url=/tag/1/][/url]
Default                                  : Yes [url=/tag/1/][/url]
Forced                                   : No [url=/tag/1/][/url]
Color range                              : Limited [url=/tag/1/][/url]
Color primaries                          : BT.709 [url=/tag/1/][/url]
Transfer characteristics                 : BT.709 [url=/tag/1/][/url]
Matrix coefficients                      : BT.709 [url=/tag/1/][/url]
[url=/tag/1/][/url]
Audio #1 [url=/tag/1/][/url]
ID                                       : 2 [url=/tag/1/][/url]
Format                                   : AC-3 [url=/tag/1/][/url]
Format/Info                              : Audio Coding 3 [url=/tag/1/][/url]
Commercial name                          : Dolby Digital [url=/tag/1/][/url]
Codec ID                                 : A_AC3 [url=/tag/1/][/url]
Duration                                 : 1 h 31 min [url=/tag/1/][/url]
Bit rate mode                            : Constant [url=/tag/1/][/url]
Bit rate                                 : 384 kb/s [url=/tag/1/][/url]
Channel(s)                               : 6 channels [url=/tag/1/][/url]
Channel layout                           : L R C LFE Ls Rs [url=/tag/1/][/url]
Sampling rate                            : 48.0 kHz [url=/tag/1/][/url]
Frame rate                               : 31.250 FPS (1536 SPF) [url=/tag/1/][/url]
Compression mode                         : Lossy [url=/tag/1/][/url]
Stream size                              : 252 MiB (14%) [url=/tag/1/][/url]
Title                                    : DUB | iTunes [url=/tag/1/][/url]
Language                                 : Russian [url=/tag/1/][/url]
Service kind                             : Complete Main [url=/tag/1/][/url]
Default                                  : Yes [url=/tag/1/][/url]
Forced                                   : No [url=/tag/1/][/url]
[url=/tag/1/][/url]
Audio #2 [url=/tag/1/][/url]
ID                                       : 3 [url=/tag/1/][/url]
Format                                   : AC-3 [url=/tag/1/][/url]
Format/Info                              : Audio Coding 3 [url=/tag/1/][/url]
Commercial name                          : Dolby Digital [url=/tag/1/][/url]
Codec ID                                 : A_AC3 [url=/tag/1/][/url]
Duration                                 : 1 h 31 min [url=/tag/1/][/url]
Bit rate mode                            : Constant [url=/tag/1/][/url]
Bit rate                                 : 448 kb/s [url=/tag/1/][/url]
Channel(s)                               : 6 channels [url=/tag/1/][/url]
Channel layout                           : L R C LFE Ls Rs [url=/tag/1/][/url]
Sampling rate                            : 48.0 kHz [url=/tag/1/][/url]
Frame rate                               : 31.250 FPS (1536 SPF) [url=/tag/1/][/url]
Compression mode                         : Lossy [url=/tag/1/][/url]
Stream size                              : 295 MiB (16%) [url=/tag/1/][/url]
Title                                    : Original [url=/tag/1/][/url]
Language                                 : English [url=/tag/1/][/url]
Service kind                             : Complete Main [url=/tag/1/][/url]
Default                                  : No [url=/tag/1/][/url]
Forced                                   : No [url=/tag/1/][/url]
[url=/tag/1/][/url]
Text #1 [url=/tag/1/][/url]
ID                                       : 4 [url=/tag/1/][/url]
Format                                   : UTF-8 [url=/tag/1/][/url]
Codec ID                                 : S_TEXT/UTF8 [url=/tag/1/][/url]
Codec ID/Info                            : UTF-8 Plain Text [url=/tag/1/][/url]
Duration                                 : 1 h 31 min [url=/tag/1/][/url]
Bit rate                                 : 106 b/s [url=/tag/1/][/url]
Count of elements                        : 1571 [url=/tag/1/][/url]
Stream size                              : 71.1 KiB (0%) [url=/tag/1/][/url]
Title                                    : Full [url=/tag/1/][/url]
Language                                 : Russian [url=/tag/1/][/url]
Default                                  : No [url=/tag/1/][/url]
Forced                                   : No [url=/tag/1/][/url]
[url=/tag/1/][/url]
Text #2 [url=/tag/1/][/url]
ID                                       : 5 [url=/tag/1/][/url]
Format                                   : UTF-8 [url=/tag/1/][/url]
Codec ID                                 : S_TEXT/UTF8 [url=/tag/1/][/url]
Codec ID/Info                            : UTF-8 Plain Text [url=/tag/1/][/url]
Duration                                 : 1 h 31 min [url=/tag/1/][/url]
Bit rate                                 : 63 b/s [url=/tag/1/][/url]
Count of elements                        : 1583 [url=/tag/1/][/url]
Stream size                              : 42.1 KiB (0%) [url=/tag/1/][/url]
Title                                    : Full [url=/tag/1/][/url]
Language                                 : English [url=/tag/1/][/url]
Default                                  : No [url=/tag/1/][/url]
Forced                                   : No [url=/tag/1/][/url]
[url=/tag/1/][/url]
Text #3 [url=/tag/1/][/url]
ID                                       : 6 [url=/tag/1/][/url]
Format                                   : UTF-8 [url=/tag/1/][/url]
Codec ID                                 : S_TEXT/UTF8 [url=/tag/1/][/url]
Codec ID/Info                            : UTF-8 Plain Text [url=/tag/1/][/url]
Duration                                 : 1 h 31 min [url=/tag/1/][/url]
Bit rate                                 : 68 b/s [url=/tag/1/][/url]
Count of elements                        : 1733 [url=/tag/1/][/url]
Stream size                              : 45.4 KiB (0%) [url=/tag/1/][/url]
Title                                    : SDH [url=/tag/1/][/url]
Language                                 : English [url=/tag/1/][/url]
Default                                  : No [url=/tag/1/][/url]
Forced                                   : No [url=/tag/1/][/url]
[url=/tag/1/][/url]
Menu [url=/tag/1/][/url]
00:00:00.000                             : :Studio Logo [url=/tag/1/][/url]
00:00:33.000                             : :Prologue [url=/tag/1/][/url]
00:01:56.000                             : :Wedding [url=/tag/1/][/url]
00:06:32.000                             : :Couples' Therapy [url=/tag/1/][/url]
00:09:53.000                             : :Respecting the situation [url=/tag/1/][/url]
00:20:54.000                             : :Plagiarizer [url=/tag/1/][/url]
00:25:49.000                             : :Putting plans in place [url=/tag/1/][/url]
00:30:05.000                             : :Assembling a band [url=/tag/1/][/url]
00:41:57.000                             : :More members [url=/tag/1/][/url]
00:47:09.000                             : :Hell [url=/tag/1/][/url]
00:51:42.000                             : :Face the music [url=/tag/1/][/url]
00:59:05.000                             : :The last member [url=/tag/1/][/url]
01:10:00.000                             : :The prophesy [url=/tag/1/][/url]
01:24:15.000                             : :End Credits [url=/tag/1/][/url]
01:29:38.000                             : :One last thing to do [url=/tag/1/][/url]
[url=/tag/1/][/url]



Скриншоты:
[+] Всего файлов в раздаче - 1:
Bill and Ted Face the Music 2020 from wolf1245 & MediaBit.mkv1.82 GB

Показать еще раздачи по запросу билл:
2020-11-09 U Билл и Тед / Bill & Ted Face the Music (2020) HDRip-AVC от MediaBit | iTunes 1.45 GB ↑ 34 ↓ 8
2020-11-08 U Билл и Тед / Bill & Ted Face the Music (2020) BDRip 1080p от селезень | iTunes 8.68 GB ↑ 49 ↓ 36
2020-11-08 U Билл и Тед / Bill & Ted Face the Music (2020) BDRip от MegaPeer | iTunes 1.46 GB ↑ 50 ↓ 15
2020-11-08 U Билл и Тед / Bill & Ted Face the Music (2020) BDRip 720p от селезень | iTunes 4.83 GB ↑ 22 ↓ 15
2020-09-26 U Билл и Тед / Bill & Ted Face the Music (2020) WEB-DLRip от Scarabey | iTunes 1.44 GB ↑ 78 ↓ 11
2020-09-24 U Билл и Тед / Bill & Ted Face the Music (2020) UHD WEB-DL 2160p от селезень | 4K | SDR | iTunes 10.36 GB ↑ 109 ↓ 75
2020-09-24 U Билл и Тед / Bill & Ted Face the Music (2020) WEB-DL 1080p от селезень | iTunes 5.87 GB ↑ 50 ↓ 33

Отзывы
Зарегистрируйтесь чтобы добавить комментарий.
Загрузите программу
  uTorrent.exe
Обратная связь
Copyleft ©