↑↓torrent.by
Поиск
Логин: Регистрация
Пароль: Восстановить пароль

Созданный в Бездне: Рассвет глубокой души / Gekijouban Made in Abyss: Fukaki Tamashii no Reimei / Made in Abyss: Dawn of the Deep Soul (2020) WEBRip 1080p | D

Скачать sozdannyy-v-bezdne-rassvet-glubokoy-dushi-gekijouban-made-in-abyss-fukaki-tamashii-no-reimei-dawn-of-the-deep-soul-2020-webrip-1080p-d.torrent
U Магнитная ссылка Размер: 3.08 GB Раздают: 53 Качают: 14 Добавлен: 2020-09-27 05:25:40
Созданный в Бездне: Рассвет глубокой души / Gekijouban Made in Abyss: Fukaki Tamashii no Reimei / Made in Abyss: Dawn of the Deep Soul (2020) WEBRip 1080p | D

Название: Созданный в Бездне: Рассвет глубокой души
Оригинальное название: Gekijouban Made in Abyss: Fukaki Tamashii no Reimei
Год выхода: 2020
Жанр: приключения, фэнтези, драма
Режиссер: Кодзима Масаюки
Автор оригинала: Цукуси Акихито
Ссылки: [url=http://www.world-art.ru/animation/animation.php?id=9942" target="_blank">World-Art| aniDB|
[+] Доп.инфо:


Актёры дубляжа:

Анна Мосолова
Ирина Евтягина
Татьяна Шамарина
Анастасия Портная
Иван Породнов
Ислам Ганджаев
и другие



[+] MediaInfo:

Общее
Уникальный идентификатор                 : 77773223032085359031360650080220997666 (0x3A8293F1F7FF9B8D04362825FC45E822)
Полное имя                               : Made.in.Abyss.Dawn.of.the.Deep.Soul.2020.1080p.WEB-DL.AAC.x264-tG1R0.mkv
Формат                                   : Matroska
Версия формата                           : Version 4
Размер файла                             : 3,08 Гбайт
Продолжительность                        : 1 ч. 45 м.
Общий поток                              : 4194 Кбит/сек
Дата кодирования                         : UTC 2020-09-25 09:18:32
Программа кодирования                    : mkvmerge v50.0.0 ('Awakenings') 64-bit
Библиотека кодирования                   : libebml v1.4.0 + libmatroska v1.6.2

Видео
Идентификатор                            : 1
Формат                                   : AVC
Формат/Информация                        : Advanced Video Codec
Профиль формата                          : High@L4
Настройки формата                        : CABAC / 4 Ref Frames
Параметр CABAC формата                   : Да
Параметр RefFrames формата               : 4 кадра
Идентификатор кодека                     : V_MPEG4/ISO/AVC
Продолжительность                        : 1 ч. 45 м.
Битрейт                                  : 4100 Кбит/сек
Ширина                                   : 1920 пикселей
Высота                                   : 1080 пикселей
Соотношение сторон                       : 16:9
Режим частоты кадров                     : Постоянный
Частота кадров                           : 23,976 (23976/1000) кадра/сек
Цветовое пространство                    : YUV
Субдискретизация насыщенности            : 4:2:0
Битовая глубина                          : 8 бит
Тип развёртки                            : Прогрессивная
Бит/(Пиксели*Кадры)                      : 0.082
Размер потока                            : 2,99 Гбайт (97%)
Библиотека кодирования                   : x264 core 155
Настройки программы                      : cabac=1 / ref=3 / deblock=1:0:0 / analyse=0x3:0x113 / me=hex / subme=6 / psy=1 / psy_rd=1.00:0.00 / mixed_ref=0 / me_range=16 / chroma_me=1 / trellis=1 / 8x8dct=1 / cqm=0 / deadzone=21,11 / fast_pskip=1 / chroma_qp_offset=-2 / threads=24 / lookahead_threads=4 / sliced_threads=0 / nr=0 / decimate=1 / interlaced=0 / bluray_compat=0 / constrained_intra=0 / bframes=3 / b_pyramid=2 / b_adapt=1 / b_bias=0 / direct=1 / weightb=1 / open_gop=0 / weightp=2 / keyint=250 / keyint_min=25 / scenecut=0 / intra_refresh=0 / rc_lookahead=40 / rc=abr / mbtree=1 / bitrate=4100 / ratetol=1.0 / qcomp=0.60 / qpmin=0 / qpmax=69 / qpstep=4 / vbv_maxrate=4700 / vbv_bufsize=23500 / nal_hrd=none / filler=0 / ip_ratio=1.40 / aq=1:1.00
Язык                                     : Japanese
Default                                  : Да
Forced                                   : Нет

Аудио
Идентификатор                            : 2
Формат                                   : AAC LC
Формат/Информация                        : Advanced Audio Codec Low Complexity
Идентификатор кодека                     : A_AAC-2
Продолжительность                        : 1 ч. 45 м.
Битрейт                                  : 128 Кбит/сек
Каналы                                   : 2 канала
ChannelLayout                            : L R
Частота                                  : 48,0 КГц
Частота кадров                           : 46,875 кадров/сек (1024 SPF)
Метод сжатия                             : С потерями
Размер потока                            : 96,2 Мбайт (3%)
Заголовок                                : Wakanim
Язык                                     : Russian
Default                                  : Да
Forced                                   : Нет



Скриншоты:
[+] Всего файлов в раздаче - 1:
Made.in.Abyss.Dawn.of.the.Deep.Soul.2020.1080p.WEB-DL.AAC.x264-tG1R0.mkv3.08 GB

Отзывы
Зарегистрируйтесь чтобы добавить комментарий.
Загрузите программу
  uTorrent.exe
Обратная связь
Copyleft ©