↑↓torrent.by
Поиск
Логин: Регистрация
Пароль: Восстановить пароль

Страшные истории, рассказанные на ночь / A Night of Horror: Nightmare Radio (2019) BDRip 1080p | A

Скачать strashnye-istorii-rasskazannye-na-noch-a-night-of-horror-nightmare-radio-2019-bdrip-1080p.torrent
U Магнитная ссылка Размер: 8.19 GB Раздают: 70 Качают: 16 Добавлен: 2020-09-30 07:25:37
Страшные истории, рассказанные на ночь / A Night of Horror: Nightmare Radio (2019) BDRip 1080p | A

Название: Страшные истории, рассказанные на ночь
Оригинальное название: A Night of Horror: Nightmare Radio
Год выхода: 2019
Жанр: Ужасы, детектив
Режиссер: Оливер Парк, Джейсон Богнацки, А.Дж. Брионес
В ролях: Иэн Костелло, Мишель Костелло, Клара Ковачич, Кера О’Брайон, Джеймс Райт, Патрисия Арисменди, Дэвид Брин, Адриан Лопес, Клаудия Битти, Эбби Чалли, Меллиса Чалли, Стрэйндж Дэйв, Кевин Ди, Рамон Дель Помар, Карл Эдрард

О фильме:
Род ведет ночное радиошоу. Ему звонят слушатели и рассказывают разные паранормальные истории. Но однажды ночью ему начинают поступать странные звонки от ребенка, который отчаянно просит его о помощи. Поначалу Род решает, что это чей-то дурацкий розыгрыш, но позже убеждается, что это не так. Более того, в этих звонках кроется страшная тайна, и ведущий сам скоро окажется её участником.

Страна: Аргентина, Новая Зеландия, Великобритания
Студия: Black Mandala
Продолжительность: 01:44:44
Перевод: Aвторский одноголосый | А.Важенин (BadBajo)

Файл
Кодек: x.264
Качество: BDRip 1080p
Видео: MPEG-4 AVC, 10.4 Mбит/с, 1920x800, 24.000 кадр/с
Аудио #1: Русский (АС3, 6 ch, 384 Кбит/с, 48.0 KHz) Aвторский (одноголосый, закадровый) А.Важенин (BadBajo)
Аудио #2: Английский (АС3, 6 ch, 384 Кбит/с, 48.0 KHz)
Субтитры: Русские (Full, SDH (Khotya-303), английские, немецкие
► Без Рекламы!
Трейлер




[+] MediaInfo
Источник: A.Night.of.Horror.Nightmare.Radio.2019.1080p.BluRay.x264-HANDJOB
General
Unique ID                      : 196131134608985523794040135493338951420 (0x938D7B863C14F8BBAE7A396AB5626EFC)
Complete name                  : A.Night.of.Horror.Nightmare.Radio.2019.BDRip.1080p.mkv
Format                         : Matroska
Format version                 : Version 4
File size                      : 8.19 GiB
Duration                       : 1 h 44 min
Overall bit rate               : 11.2 Mb/s
Encoded date                   : UTC 2020-09-29 13:07:22
Writing application            : mkvmerge v7.1.0 ('Good Love') 64bit built on Jul 27 2014 13:06:55
Writing library                : libebml v1.3.0 + libmatroska v1.4.1

Video
ID                             : 1
Format                         : AVC
Format/Info                    : Advanced Video Codec
Format profile                 : High@L4.1
Format settings                : CABAC / 5 Ref Frames
Format settings, CABAC         : Yes
Format settings, Reference fra : 5 frames
Codec ID                       : V_MPEG4/ISO/AVC
Duration                       : 1 h 44 min
Bit rate                       : 10.4 Mb/s
Width                          : 1 920 pixels
Height                         : 800 pixels
Display aspect ratio           : 2.40:1
Frame rate mode                : Constant
Frame rate                     : 24.000 FPS
Color space                    : YUV
Chroma subsampling             : 4:2:0
Bit depth                      : 8 bits
Scan type                      : Progressive
Bits/(Pixel*Frame)             : 0.283
Stream size                    : 7.62 GiB (93%)
Writing library                : x264 core 160 r3011 cde9a93
Encoding settings              : cabac=1 / ref=5 / deblock=1:-3:-3 / analyse=0x3:0x133 / me=umh / subme=10 / psy=1 / psy_rd=1.00:0.00 / mixed_ref=1 / me_range=32 / chroma_me=1 / trellis=2 / 8x8dct=1 / cqm=0 / deadzone=21,11 / fast_pskip=0 / chroma_qp_offset=-2 / threads=9 / lookahead_threads=2 / sliced_threads=0 / nr=0 / decimate=0 / interlaced=0 / bluray_compat=0 / constrained_intra=0 / bframes=16 / b_pyramid=2 / b_adapt=2 / b_bias=0 / direct=3 / weightb=1 / open_gop=0 / weightp=2 / keyint=240 / keyint_min=24 / scenecut=40 / intra_refresh=0 / rc_lookahead=60 / rc=crf / mbtree=0 / crf=14.0 / qcomp=0.60 / qpmin=0 / qpmax=69 / qpstep=4 / vbv_maxrate=62500 / vbv_bufsize=78125 / crf_max=0.0 / nal_hrd=none / filler=0 / ip_ratio=1.40 / pb_ratio=1.30 / aq=2:1.00
Language                       : English
Default                        : Yes
Forced                         : No
Color range                    : Limited
Color primaries                : BT.709
Transfer characteristics       : BT.709
Matrix coefficients            : BT.709

Audio #1
ID                             : 2
Format                         : AC-3
Format/Info                    : Audio Coding 3
Commercial name                : Dolby Digital
Codec ID                       : A_AC3
Duration                       : 1 h 44 min
Bit rate mode                  : Constant
Bit rate                       : 384 kb/s
Channel(s)                     : 6 channels
Channel layout                 : L R C LFE Ls Rs
Sampling rate                  : 48.0 kHz
Frame rate                     : 31.250 FPS (1536 SPF)
Compression mode               : Lossy
Stream size                    : 288 MiB (3%)
Language                       : Russian
Service kind                   : Complete Main
Default                        : Yes
Forced                         : No

Audio #2
ID                             : 3
Format                         : AC-3
Format/Info                    : Audio Coding 3
Commercial name                : Dolby Digital
Codec ID                       : A_AC3
Duration                       : 1 h 44 min
Bit rate mode                  : Constant
Bit rate                       : 384 kb/s
Channel(s)                     : 6 channels
Channel layout                 : L R C LFE Ls Rs
Sampling rate                  : 48.0 kHz
Frame rate                     : 31.250 FPS (1536 SPF)
Compression mode               : Lossy
Stream size                    : 288 MiB (3%)
Language                       : English
Service kind                   : Complete Main
Default                        : No
Forced                         : No

Text #1
ID                             : 4
Format                         : UTF-8
Codec ID                       : S_TEXT/UTF8
Codec ID/Info                  : UTF-8 Plain Text
Duration                       : 1 h 32 min
Bit rate                       : 60 b/s
Count of elements              : 613
Stream size                    : 41.2 KiB (0%)
Language                       : Russian
Default                        : No
Forced                         : No

Text #2
ID                             : 5
Format                         : UTF-8
Codec ID                       : S_TEXT/UTF8
Codec ID/Info                  : UTF-8 Plain Text
Duration                       : 1 h 32 min
Bit rate                       : 67 b/s
Count of elements              : 762
Stream size                    : 46.2 KiB (0%)
Title                          : SDH
Language                       : Russian
Default                        : No
Forced                         : No

Text #3
ID                             : 6
Format                         : UTF-8
Codec ID                       : S_TEXT/UTF8
Codec ID/Info                  : UTF-8 Plain Text
Duration                       : 24 min 20 s
Bit rate                       : 14 b/s
Count of elements              : 102
Stream size                    : 2.55 KiB (0%)
Title                          : For non-English Scenes
Language                       : English
Default                        : No
Forced                         : No

Text #4
ID                             : 7
Format                         : UTF-8
Codec ID                       : S_TEXT/UTF8
Codec ID/Info                  : UTF-8 Plain Text
Duration                       : 1 h 32 min
Bit rate                       : 30 b/s
Count of elements              : 706
Stream size                    : 20.6 KiB (0%)
Language                       : English
Default                        : No
Forced                         : No

Text #5
ID                             : 8
Format                         : PGS
Muxing mode                    : zlib
Codec ID                       : S_HDMV/PGS
Codec ID/Info                  : Picture based subtitle format used on BDs/HD-DVDs
Duration                       : 1 h 32 min
Bit rate                       : 11.9 kb/s
Count of elements              : 1244
Stream size                    : 7.92 MiB (0%)
Language                       : German
Default                        : No
Forced                         : No

Menu
00:00:00.000                   : en:In the Dark Dark Woods
00:04:25.708                   : en:Post Mortem Mary
00:16:09.041                   : en:A Little Off the Top
00:28:22.500                   : en:The Disappearance of Willie Bingham
00:42:10.041                   : en:Gotas
00:56:36.083                   : en:The Smiling Man
01:04:02.541                   : en:Into the Mud
01:15:15.041                   : en:Vicious
01:30:08.041                   : en:Horror Stories Never End
01:33:14.666                   : en:Credits



Скриншоты:
[+] Всего файлов в раздаче - 1:
A.Night.of.Horror.Nightmare.Radio.2019.BDRip.1080p.mkv8.19 GB

Похожие раздачи по запросу - страшные:
2020-06-20 U Засекреченные списки. Всё не то, чем кажется! Самые страшные тайны (2020) SATRip 1.28 GB ↑ 79 ↓ 25
2020-04-05 U Засекреченные списки. Страшные тайны земли (2020) SATRip 1.27 GB ↑ 148 ↓ 27
2020-02-16 U Засекреченные списки. Самые страшные тайны (2020) SATRip 1.21 GB ↑ 61 ↓ 23

Отзывы
Зарегистрируйтесь чтобы добавить комментарий.
Загрузите программу
  uTorrent.exe
Обратная связь
Copyleft ©