↑↓torrent.by
Поиск
Логин: Регистрация
Пароль: Восстановить пароль

Фитнес / Королева фитнеса [S04] (2020) WEBRip от GeneralFilm

Скачать fitnes-koroleva-fitnesa-s04-2020-webrip-ot-generalfilm.torrent
U Магнитная ссылка Размер: 5.45 GB Раздают: 94 Качают: 101 Добавлен: 2020-10-05 05:25:02
Фитнес / Королева фитнеса [S04] (2020) WEBRip от GeneralFilm

Название: Фитнес (Королева фитнеса)
Год выпуска: 2020
Жанр:  Комедия
Выпущено: Россия, СУПЕР продакшн, Киностудия "Yellow, Black and White"
Режиссер: Кирилл Васильев
В ролях: Софья Зайка, Светлана Камынина, Илья Глинников, Михаил Трухин, Татьяна Храмова (II), Роман Курцын, Марианна Шульц, Дмитрий Чеботарёв, Софья Донианц, Алексей Демидов, Евгений Михеев, Филипп Бледный, Кристина Юдичева, Ольга Баранова

О фильме: Ася возвращается в «SUPERFIT», пройдя обучение в английской бизнес-школе. Теперь она занимает пост директора и старается соответствовать своей новой должности, но это не так просто, как ей казалось. Поэтому что ее, что сотрудников фитнес-центра, ждут глобальные перемены, которые приведут к необратимым последствиям. Также в их центр придет новая сотрудница, которая будет очень экстравагантна и эксцентрична…

Качество: WEBRip
Видео: XviD build 73, 720x400 (16:9), 25.000 fps, ~ 1500 Kbps (~ 0.210 bit/pixel)
Аудио: 48.0 kHz, MP3, 2/0 ch, 192 kbps
Продолжительность: 20 x ~ 00:25:00
Перевод: Не требуется [Русский]
Cубтитры: нет

Релиз:


[+] MediaInfo

General
Complete name               : D:RazdachiFitnes.s04.2020.WEBRip.GeneralFilms04.e02.Fitnes.avi
Format                      : AVI
Format/Info                 : Audio Video Interleave
File size                   : 279 MiB
Duration                    : 22 min 36 s
Overall bit rate            : 1 724 kb/s
Writing application         : VirtualDubMod 1.5.10.3 | www.virtualdub-fr.org || (build 2550/release)
Writing library             : VirtualDubMod build 2550/release

Video
ID                          : 0
Format                      : MPEG-4 Visual
Format profile              : Advanced Simple@L5
Format settings             : BVOP2
Format settings, BVOP       : 2
Format settings, QPel       : No
Format settings, GMC        : No warppoints
Format settings, Matrix     : Custom
Codec ID                    : XVID
Codec ID/Hint               : XviD
Duration                    : 22 min 36 s
Bit rate                    : 1 522 kb/s
Width                       : 720 pixels
Height                      : 400 pixels
Display aspect ratio        : 16:9
Frame rate                  : 25.000 FPS
Color space                 : YUV
Chroma subsampling          : 4:2:0
Bit depth                   : 8 bits
Scan type                   : Progressive
Compression mode            : Lossy
Bits/(Pixel*Frame)          : 0.211
Stream size                 : 246 MiB (88%)
Writing library             : XviD 73

Audio
ID                          : 1
Format                      : MPEG Audio
Format version              : Version 1
Format profile              : Layer 3
Codec ID                    : 55
Codec ID/Hint               : MP3
Duration                    : 22 min 36 s
Bit rate mode               : Constant
Bit rate                    : 192 kb/s
Channel(s)                  : 2 channels
Sampling rate               : 48.0 kHz
Frame rate                  : 41.667 FPS (1152 SPF)
Compression mode            : Lossy
Stream size                 : 31.1 MiB (11%)
Alignment                   : Aligned on interleaves
Interleave, duration        : 40  ms (1.00 video frame)
Interleave, preload duratio : 504  ms
Writing library             : LAME3.99r
Encoding settings           : -m s -V 4 -q 2 -lowpass 18.6 -b 192



Скриншоты:
[+] Всего файлов в раздаче - 20:
s04.e01.Fitnes.avi278.88 MB
s04.e02.Fitnes.avi278.78 MB
s04.e03.Fitnes.avi279.07 MB
s04.e04.Fitnes.avi278.80 MB
s04.e05.Fitnes.avi278.92 MB
s04.e06.Fitnes.avi278.83 MB
s04.e07.Fitnes.avi278.80 MB
s04.e08.Fitnes.avi278.72 MB
s04.e09.Fitnes.avi278.77 MB
s04.e10.Fitnes.avi278.71 MB
s04.e11.Fitnes.avi277.74 MB
s04.e12.Fitnes.avi278.83 MB
s04.e13.Fitnes.avi278.91 MB
s04.e14.Fitnes.avi278.83 MB
s04.e15.Fitnes.avi278.87 MB
s04.e16.Fitnes.avi278.94 MB
s04.e17.Fitnes.avi278.88 MB
s04.e18.Fitnes.avi278.84 MB
s04.e19.Fitnes.avi278.85 MB
s04.e20.Fitnes.avi278.82 MB

Похожие раздачи по запросу - фитнес:
2020-09-24 U Фитнес / Королева фитнеса [04х01-14 из 20] (2020) WEBRip от GeneralFilm 3.81 GB ↑ 55 ↓ 76
2020-09-22 U Фитнес / Королева фитнеса [04х01-12 из 20] (2020) WEBRip 720p от Files-x 6.12 GB ↑ 34 ↓ 41
2013-12-08 U Библиотека Men's Health - Дмитрий Смирнов - Фитнес для умных [2010, PDF, RUS] 56.16 MB ↑ 5548 ↓ 35
2013-10-29 U Фитнес - Похудей за 30 дней / 30 Day Shred. Jillian Michaels. Rus (2007) DVDRip 10К699.99 MB ↑ 16218 ↓ 61

Отзывы
Зарегистрируйтесь чтобы добавить комментарий.
Загрузите программу
  uTorrent.exe
Обратная связь
Copyleft ©