↑↓torrent.by
Поиск
Логин: Регистрация
Пароль: Восстановить пароль

Где-то во времени / The Fare (2018) BDRip 1080p от селезень | iTunes

Скачать gde-to-vo-vremeni-the-fare-2018-bdrip-1080p-ot-selezen-itunes.torrent
U Магнитная ссылка Размер: 7.08 GB Раздают: 284 Качают: 89 Добавлен: 2020-10-05 19:01:56
Где-то во времени / The Fare (2018) BDRip 1080p от селезень | iTunes

Название: Где-то во времени
Оригинальное название: The Fare
Год выхода: 2018
Жанр: Детектив, мелодрама, фантастика
Режиссер: Дэвид Хэмилтон
В ролях: Джино Энтони Песи, Бринна Келли, Джейсон Стюарт, Джон Джейкобс, Мэтт Фонтана, Дж.К. Бэйкер, Джефф Блум, Стивен Джи, Дэвид Миделл, Сара Мур

О фильме: Очаровательная пассажирка по имени Пенни садится в такси к Харрису. Машина движется по безлюдной темной трассе, и таксист начинает беседу с девушкой. Внезапно она исчезает с заднего сиденья автомобиля, не оставив и следа. Харрис сбрасывает счетчик километров... и перемещается во времени назад, в тот самый момент, когда таинственная пассажирка открывает дверь машины. Харрис и Пенни оказываются во временной ловушке, но эта бесконечная поездка снимет покров с тайн и изменит их жизни навсегда.

Страна: США
Студия: 501 Pictures, Public Displays of Affection, Grady Film
Продолжительность: 01:22:03
Перевод: Дублированный | iTunes

Качество: BDRip 1080p
Видео: MPEG-4 AVC, 1920x800, 11.3 Mbit/s, 23.976 fps
Аудио #01: 48 kHz, AC3, 5.1, 384 Kbps | iTunes | RUS |
Аудио #02: 48 kHz, AC3, 5.1, 640 Kbps | Оригинал | ENG |
Субтитры: Английские

Релиз: Присоединяйся к:


[+] MI
General
Unique ID                   : 58210843348868066957181675031278629484 (0x2BCB00293EF106447AF68DCCA1FFB26C)
Complete name               : D:Video111The.Fare.2018.BDRip.1080p.seleZen.mkv
Format                      : Matroska
Format version              : Version 4
File size                   : 7.08 GiB
Duration                    : 1 h 22 min
Overall bit rate            : 12.3 Mb/s
Movie name                  : The Fare 2018 from селезень
Encoded date                : UTC 2020-10-04 21:51:31
Writing application         : mkvmerge v40.0.0 ('Old Town Road + Pony') 64-bit
Writing library             : libebml v1.3.9 + libmatroska v1.5.2

Video
ID                          : 1
Format                      : AVC
Format/Info                 : Advanced Video Codec
Format profile              : High@L4.1
Format settings             : CABAC / 5 Ref Frames
Format settings, CABAC      : Yes
Format settings, Reference  : 5 frames
Codec ID                    : V_MPEG4/ISO/AVC
Duration                    : 1 h 22 min
Bit rate                    : 11.3 Mb/s
Width                       : 1 920 pixels
Height                      : 800 pixels
Display aspect ratio        : 2.40:1
Frame rate mode             : Constant
Frame rate                  : 23.976 (24000/1001) FPS
Color space                 : YUV
Chroma subsampling          : 4:2:0
Bit depth                   : 8 bits
Scan type                   : Progressive
Bits/(Pixel*Frame)          : 0.308
Stream size                 : 6.49 GiB (92%)
Title                       : Encoded by seleZen
Writing library             : x264 core 148 r2705kMod 3f5ed56
Encoding settings           : cabac=1 / ref=5 / deblock=1:-2:-2 / analyse=0x3:0x133 / me=umh / subme=10 / psy=1 / fade_compensate=0.00 / psy_rd=1.04:0.02 / mixed_ref=1 / me_range=32 / chroma_me=1 / trellis=2 / 8x8dct=1 / cqm=0 / deadzone=21,11 / fast_pskip=0 / chroma_qp_offset=-3 / threads=24 / lookahead_threads=4 / sliced_threads=0 / nr=0 / decimate=0 / interlaced=0 / bluray_compat=0 / constrained_intra=0 / fgo=0 / bframes=9 / b_pyramid=2 / b_adapt=2 / b_bias=0 / direct=3 / weightb=1 / open_gop=0 / weightp=2 / keyint=240 / keyint_min=23 / scenecut=40 / intra_refresh=0 / rc_lookahead=50 / rc=2pass / mbtree=0 / bitrate=11328 / ratetol=1.0 / qcomp=0.60 / qpmin=0 / qpmax=51 / qpstep=4 / cplxblur=20.0 / qblur=0.5 / vbv_maxrate=50000 / vbv_bufsize=62500 / nal_hrd=none / filler=0 / ip_ratio=1.40 / pb_ratio=1.30 / aq=3:0.80
Language                    : English
Default                     : Yes
Forced                      : No

Audio #1
ID                          : 2
Format                      : AC-3
Format/Info                 : Audio Coding 3
Commercial name             : Dolby Digital
Codec ID                    : A_AC3
Duration                    : 1 h 22 min
Bit rate mode               : Constant
Bit rate                    : 384 kb/s
Channel(s)                  : 6 channels
Channel layout              : L R C LFE Ls Rs
Sampling rate               : 48.0 kHz
Frame rate                  : 31.250 FPS (1536 SPF)
Compression mode            : Lossy
Stream size                 : 225 MiB (3%)
Title                       : iTunes
Language                    : Russian
Service kind                : Complete Main
Default                     : Yes
Forced                      : Yes

Audio #2
ID                          : 3
Format                      : AC-3
Format/Info                 : Audio Coding 3
Commercial name             : Dolby Digital
Codec ID                    : A_AC3
Duration                    : 1 h 22 min
Bit rate mode               : Constant
Bit rate                    : 640 kb/s
Channel(s)                  : 6 channels
Channel layout              : L R C LFE Ls Rs
Sampling rate               : 48.0 kHz
Frame rate                  : 31.250 FPS (1536 SPF)
Compression mode            : Lossy
Stream size                 : 376 MiB (5%)
Title                       : Original
Language                    : English
Service kind                : Complete Main
Default                     : No
Forced                      : No

Text
ID                          : 4
Format                      : UTF-8
Codec ID                    : S_TEXT/UTF8
Codec ID/Info               : UTF-8 Plain Text
Duration                    : 1 h 19 min
Bit rate                    : 62 b/s
Count of elements           : 1433
Stream size                 : 36.4 KiB (0%)
Title                       : SDH
Language                    : English
Default                     : No
Forced                      : No

Menu
00:00:00.000                : de:Глава 01
00:09:45.752                : de:Глава 02
00:19:13.319                : de:Глава 03
00:29:56.837                : de:Глава 04
00:39:36.666                : de:Глава 05
00:49:54.909                : de:Глава 06
00:59:28.273                : de:Глава 07
01:09:44.347                : de:Глава 08
01:19:31.058                : de:Глава 09



Скриншоты:
[+] Всего файлов в раздаче - 1:
The.Fare.2018.BDRip.1080p.seleZen.mkv7.08 GB

Показать еще раздачи по запросу времени:
2021-02-12 U В кольце времени / Time Loop (2020) WEB-DLRip-AVC | D 744.78 MB ↑ 52 ↓ 9
2021-02-11 U В кольце времени / Time Loop (2020) WEB-DL 1080p | D 3.91 GB ↑ 148 ↓ 34
2021-02-10 U В кольце времени / Time Loop (2020) WEB-DLRip от MegaPeer | D 1.46 GB ↑ 311 ↓ 153
2021-02-02 U Властелины времени / Les maîtres du temps (1982) BDRip 1080p | D, P 5.93 GB ↑ 33 ↓ 6
2021-01-14 U Грань времени / Synchronic (2019) WEB-DL 1080p | D | Line 6.94 GB ↑ 188 ↓ 72
2021-01-14 U Грань времени / Synchronic (2019) WEB-DLRip | D | Line 1.45 GB ↑ 471 ↓ 60
2020-11-15 U 2067: Петля времени / 2067 (2020) BDRip от MegaPeer | iTunes 1.46 GB ↑ 105 ↓ 62

Отзывы
Зарегистрируйтесь чтобы добавить комментарий.
Загрузите программу
  uTorrent.exe
Обратная связь
Copyleft ©