↑↓torrent.by
Поиск
Логин: Регистрация
Пароль: Восстановить пароль

Дэвид Аттенборо: Жизнь на нашей планете / David Attenborough: A Life on Our Planet (2020) WEB-DL 1080p | VSI Moscow

Скачать devid-attenboro-zhizn-na-nashey-planete-david-attenborough-a-life-on-our-planet-2020-web-dl-1080p-vsi-moscow.torrent
U Магнитная ссылка Размер: 4.93 GB Раздают: 81 Качают: 20 Добавлен: 2020-10-10 11:09:04
Дэвид Аттенборо: Жизнь на нашей планете / David Attenborough: A Life on Our Planet (2020) WEB-DL 1080p | VSI Moscow

Название: Дэвид Аттенборо: Жизнь на нашей планете
Оригинальное название: David Attenborough: A Life on Our Planet
Год выхода: 2020
Жанр: документальный, биография
Режиссер: Аластер Фовергилл, Джонатан Хьюз, Кит Шолей
В ролях: Дэвид Аттенборо

О фильме: В свои 93 года Дэвид Аттенборо посетил все континенты земного шара, исследуя дикие места нашей планеты и документируя живой мир во всем его разнообразии. Но также Аттенборо своими глазами увидел колоссальные масштабы воздействия человека на природу. Впервые в жизни он размышляет как об определяющих моментах своей жизни как натуралиста, так и о разрушительных изменениях, которые он видел.

Страна: США
Студия: Altitude Film Entertainment, NetFlix, Silverback Films, World Wildlife Fund
Продолжительность: 01:23:47
Перевод: Профессиональный (двухголосый, закадровый) VSI Moscow по заказу Netflix (текст читали: Игорь Тарадайкин и Ольга Зубкова)

Файл
Качество: WEB-DL 1080p
Формат: Matroska
Видео: 1920x1080 at 23.976 fps, MPEG-4 AVC, ~7000 kbps avg
Аудио#1: Russian: 48 kHz, E-AC3, 3/2 (L,C,R,l,r) + LFE ch, ~640 kbps avg |Дубляж, SDI Media по заказу Netflix|
Аудио#2: English: 48 kHz, E-AC3 JOC, 3/2 (L,C,R,l,r) + LFE ch, ~768 kbps avg
Субтитры: Russian (Forced, Full), English (SDH) и другие

***Примечание: Без рекламы
***Релиз: Kyle


[+] MediaInfo
General
Complete name                            : David.Attenborough.A.Life.on.Our.Planet.2020.1080p.NF.WEB-DL.DDP5.1.x264-NTG_Kyle.mkv
Format                                   : Matroska
Format version                           : Version 4
File size                                : 4.93 GiB
Duration                                 : 1 h 23 min
Overall bit rate mode                    : Variable
Overall bit rate                         : 8 427 kb/s
Encoded date                             : UTC 2020-10-04 11:19:36
Writing application                      : mkvmerge v50.0.0 ('Awakenings') 64-bit
Writing library                          : libebml v1.4.0 + libmatroska v1.6.2

Video
ID                                       : 1
Format                                   : AVC
Format/Info                              : Advanced Video Codec
Format profile                           : Main@L4
Format settings                          : CABAC / 3 Ref Frames
Format settings, CABAC                   : Yes
Format settings, Reference frames        : 3 frames
Codec ID                                 : V_MPEG4/ISO/AVC
Duration                                 : 1 h 23 min
Bit rate mode                            : Variable
Bit rate                                 : 7 016 kb/s
Nominal bit rate                         : 7 500 kb/s
Maximum bit rate                         : 11.2 Mb/s
Width                                    : 1 920 pixels
Height                                   : 1 080 pixels
Display aspect ratio                     : 16:9
Frame rate mode                          : Constant
Frame rate                               : 23.976 (24000/1001) FPS
Color space                              : YUV
Chroma subsampling                       : 4:2:0
Bit depth                                : 8 bits
Scan type                                : Progressive
Bits/(Pixel*Frame)                       : 0.141
Stream size                              : 4.11 GiB (83%)
Writing library                          : x264 core 148 r2722 1b0121b
Encoding settings                        : cabac=1 / ref=3 / deblock=1:0:0 / analyse=0x1:0x111 / me=umh / subme=10 / psy=1 / psy_rd=1.00:0.00 / mixed_ref=1 / me_range=24 / chroma_me=1 / trellis=2 / 8x8dct=0 / cqm=0 / deadzone=21,11 / fast_pskip=1 / chroma_qp_offset=-2 / threads=8 / lookahead_threads=1 / sliced_threads=0 / nr=0 / decimate=1 / interlaced=0 / bluray_compat=0 / stitchable=1 / constrained_intra=0 / bframes=2 / b_pyramid=0 / b_adapt=2 / b_bias=0 / direct=3 / weightb=1 / open_gop=0 / weightp=2 / keyint=250 / keyint_min=23 / scenecut=0 / intra_refresh=0 / rc_lookahead=48 / rc=2pass / mbtree=1 / bitrate=7500 / ratetol=1.0 / qcomp=0.50 / qpmin=6 / qpmax=51 / qpstep=4 / cplxblur=20.0 / qblur=0.5 / vbv_maxrate=11250 / vbv_bufsize=15000 / nal_hrd=vbr / filler=0 / ip_ratio=1.40 / aq=1:1.00
Default                                  : Yes
Forced                                   : No

Audio #1
ID                                       : 2
Format                                   : E-AC-3
Format/Info                              : Enhanced AC-3
Commercial name                          : Dolby Digital Plus
Codec ID                                 : A_EAC3
Duration                                 : 1 h 23 min
Bit rate mode                            : Constant
Bit rate                                 : 640 kb/s
Channel(s)                               : 6 channels
Channel layout                           : L R C LFE Ls Rs
Sampling rate                            : 48.0 kHz
Frame rate                               : 31.250 FPS (1536 SPF)
Compression mode                         : Lossy
Stream size                              : 384 MiB (8%)
Title                                    : Russian
Language                                 : Russian
Service kind                             : Complete Main
Default                                  : Yes
Forced                                   : No

Audio #2
ID                                       : 3
Format                                   : E-AC-3 JOC
Format/Info                              : Enhanced AC-3 with Joint Object Coding
Commercial name                          : Dolby Digital Plus with Dolby Atmos
Codec ID                                 : A_EAC3
Duration                                 : 1 h 23 min
Bit rate mode                            : Constant
Bit rate                                 : 768 kb/s
Channel(s)                               : 6 channels
Channel layout                           : L R C LFE Ls Rs
Sampling rate                            : 48.0 kHz
Frame rate                               : 31.250 FPS (1536 SPF)
Compression mode                         : Lossy
Stream size                              : 460 MiB (9%)
Language                                 : English
Service kind                             : Complete Main
Default                                  : No
Forced                                   : No
Complexity index                         : 16
Number of dynamic objects                : 15
Bed channel count                        : 1 channel
Bed channel configuration                : LFE

Text #1
ID                                       : 4
Format                                   : UTF-8
Codec ID                                 : S_TEXT/UTF8
Codec ID/Info                            : UTF-8 Plain Text
Duration                                 : 1 h 22 min
Bit rate                                 : 6 b/s
Count of elements                        : 68
Stream size                              : 3.84 KiB (0%)
Title                                    : Forced
Language                                 : Russian
Default                                  : Yes
Forced                                   : No

Text #2
ID                                       : 5
Format                                   : UTF-8
Codec ID                                 : S_TEXT/UTF8
Codec ID/Info                            : UTF-8 Plain Text
Duration                                 : 1 h 22 min
Bit rate                                 : 99 b/s
Count of elements                        : 909
Stream size                              : 60.2 KiB (0%)
Language                                 : Russian
Default                                  : No
Forced                                   : No

Text #3
ID                                       : 6
Format                                   : UTF-8
Codec ID                                 : S_TEXT/UTF8
Codec ID/Info                            : UTF-8 Plain Text
Duration                                 : 1 h 15 min
Bit rate                                 : 73 b/s
Count of elements                        : 791
Stream size                              : 40.6 KiB (0%)
Title                                    : SDH
Language                                 : English
Default                                  : No
Forced                                   : No

Text #4
ID                                       : 7
Format                                   : UTF-8
Codec ID                                 : S_TEXT/UTF8
Codec ID/Info                            : UTF-8 Plain Text
Duration                                 : 1 h 22 min
Bit rate                                 : 61 b/s
Count of elements                        : 882
Stream size                              : 37.0 KiB (0%)
Language                                 : German
Default                                  : No
Forced                                   : No

Text #5
ID                                       : 8
Format                                   : UTF-8
Codec ID                                 : S_TEXT/UTF8
Codec ID/Info                            : UTF-8 Plain Text
Duration                                 : 1 h 22 min
Bit rate                                 : 70 b/s
Count of elements                        : 768
Stream size                              : 42.6 KiB (0%)
Title                                    : European
Language                                 : Spanish
Default                                  : No
Forced                                   : No

Text #6
ID                                       : 9
Format                                   : UTF-8
Codec ID                                 : S_TEXT/UTF8
Codec ID/Info                            : UTF-8 Plain Text
Duration                                 : 1 h 22 min
Bit rate                                 : 60 b/s
Count of elements                        : 769
Stream size                              : 36.5 KiB (0%)
Language                                 : Finnish
Default                                  : No
Forced                                   : No

Text #7
ID                                       : 10
Format                                   : UTF-8
Codec ID                                 : S_TEXT/UTF8
Codec ID/Info                            : UTF-8 Plain Text
Duration                                 : 1 h 22 min
Bit rate                                 : 65 b/s
Count of elements                        : 907
Stream size                              : 39.6 KiB (0%)
Language                                 : French
Default                                  : No
Forced                                   : No

Text #8
ID                                       : 11
Format                                   : UTF-8
Codec ID                                 : S_TEXT/UTF8
Codec ID/Info                            : UTF-8 Plain Text
Duration                                 : 1 h 22 min
Bit rate                                 : 69 b/s
Count of elements                        : 918
Stream size                              : 42.0 KiB (0%)
Language                                 : Italian
Default                                  : No
Forced                                   : No

Text #9
ID                                       : 12
Format                                   : UTF-8
Codec ID                                 : S_TEXT/UTF8
Codec ID/Info                            : UTF-8 Plain Text
Duration                                 : 1 h 22 min
Bit rate                                 : 66 b/s
Count of elements                        : 827
Stream size                              : 40.1 KiB (0%)
Language                                 : Polish
Default                                  : No
Forced                                   : No

Text #10
ID                                       : 13
Format                                   : UTF-8
Codec ID                                 : S_TEXT/UTF8
Codec ID/Info                            : UTF-8 Plain Text
Duration                                 : 1 h 22 min
Bit rate                                 : 72 b/s
Count of elements                        : 935
Stream size                              : 43.7 KiB (0%)
Language                                 : Portuguese
Default                                  : No
Forced                                   : No

Text #11
ID                                       : 14
Format                                   : UTF-8
Codec ID                                 : S_TEXT/UTF8
Codec ID/Info                            : UTF-8 Plain Text
Duration                                 : 1 h 22 min
Bit rate                                 : 68 b/s
Count of elements                        : 764
Stream size                              : 41.3 KiB (0%)
Language                                 : Swedish
Default                                  : No
Forced                                   : No

Menu
01:18:12.000                             : en:Credits



Скриншоты:
[+] Всего файлов в раздаче - 1:
David.Attenborough.A.Life.on.Our.Planet.2020.1080p.NF.WEB-DL.DDP5.1.x264-NTG_Kyle.mkv4.93 GB

Похожие раздачи по запросу - дэвид:
2020-08-26 U Дэвид Миллер - 1000 образцов стрелкового оружия (2004) DJVU 11.52 MB ↑ 230 ↓ 14
2020-08-10 U Дэвид Стайлс - Забавные постройки для вас и ваших детей (2010) PDF 19.54 MB ↑ 135 ↓ 7
2018-03-25 U Джон Вердон - Цикл «Дэвид Гурни» [3 книги] (2011-2017) FB2 4.65 MB ↑ 1738 ↓ 30
2017-12-08 U Дэвид Эшер - Искусство натурального сыроделия (2017) PDF 264.20 MB ↑ 954 ↓ 40
2017-12-04 U Дэвид Балдаччи - Сборник произведений [18 книг] (2005-2017) FB2 26.67 MB ↑ 1438 ↓ 64
2016-07-12 U Дэвид Дэйром - Современные ножи для боя, охоты и выживания (2008) DjVu 1К165.29 MB ↑ 1451 ↓ 54

Отзывы
Зарегистрируйтесь чтобы добавить комментарий.
Загрузите программу
  uTorrent.exe
Обратная связь
Copyleft ©