↑↓torrent.by
Поиск
Логин: Регистрация
Пароль: Восстановить пароль

Discovery. Аполлон: найденные видео / Apollo: The Forgotten Films (2019) HDTV 1080i | P1

Скачать discovery-apollon-naydennye-video-apollo-the-forgotten-films-2019-hdtv-1080i-p1.torrent
U Магнитная ссылка Размер: 7.08 GB Раздают: 39 Качают: 20 Добавлен: 2020-10-11 09:31:18
Discovery. Аполлон: найденные видео / Apollo: The Forgotten Films (2019) HDTV  1080i | P1

Название: Аполлон: найденные видео
Оригинальное название: Apollo: The Forgotten Films
Год выхода: 2019
Жанр: Документальный, космос
Режиссер: Дункан Копп

О фильме:
В 1969 году миллионы людей смотрели, как Нил Армстронг делает первые шаги по поверхности Луны. Но за этими знаменитыми телевизионными кадрами скрывается неизвестная история.


Страна: США
Студия: Apollo 11: Los archivos olvidados, Discovery Channel
Продолжительность: 01:28:05
Перевод: Профессиональный (одноголосый закадровый)

Файл
Кодек: AVC/H.264
Качество: HDTV  1080i
Видео: 1920x1080 (16:9), AVC (H.264), Main@L4, 10.6 Mb/s, 25fps, 0.204 bit/pixel
Звук:
Русский 48 kHz, MPEG Layer 2, 2 ch, ~192.00 kbps avg
Английский 48 kHz, MPEG Layer 2, 2 ch, ~192.00 kbps avg

Семпл

Релиз от: kyba
[+] MediaInfo
Complete name               : F:НаладкиАполлон_ найденные видео.ts
Format                      : MPEG-TS
File size                   : 7.08 GiB
Duration                    : 1 h 28 min
Overall bit rate mode       : Variable
Overall bit rate            : 11.5 Mb/s

Video
ID                          : 1314 (0x522)
Menu ID                     : 155 (0x9B)
Format                      : AVC
Format/Info                 : Advanced Video Codec
Format profile              : Main@L4
Format settings             : CABAC / 4 Ref Frames
Format settings, CABAC      : Yes
Format settings, Reference  : 4 frames
Codec ID                    : 27
Duration                    : 1 h 28 min
Bit rate                    : 10.6 Mb/s
Width                       : 1 920 pixels
Height                      : 1 080 pixels
Display aspect ratio        : 16:9
Frame rate                  : 25.000 FPS
Standard                    : Component
Color space                 : YUV
Chroma subsampling          : 4:2:0
Bit depth                   : 8 bits
Scan type                   : Interlaced
Scan type, store method     : Separated fields
Scan order                  : Top Field First
Bits/(Pixel*Frame)          : 0.204
Stream size                 : 6.50 GiB (92%)
Color range                 : Limited
Color primaries             : BT.709
Transfer characteristics    : BT.709
Matrix coefficients         : BT.709

Audio #1
ID                          : 1315 (0x523)
Menu ID                     : 155 (0x9B)
Format                      : MPEG Audio
Format version              : Version 1
Format profile              : Layer 2
Codec ID                    : 3
Duration                    : 1 h 28 min
Bit rate mode               : Constant
Bit rate                    : 192 kb/s
Channel(s)                  : 2 channels
Sampling rate               : 48.0 kHz
Frame rate                  : 41.667 FPS (1152 SPF)
Compression mode            : Lossy
Delay relative to video     : -120 ms
Stream size                 : 121 MiB (2%)
Language                    : Russian

Audio #2
ID                          : 1316 (0x524)
Menu ID                     : 155 (0x9B)
Format                      : MPEG Audio
Format version              : Version 1
Format profile              : Layer 2
Codec ID                    : 3
Duration                    : 1 h 28 min
Bit rate mode               : Constant
Bit rate                    : 192 kb/s
Channel(s)                  : 2 channels
Sampling rate               : 48.0 kHz
Frame rate                  : 41.667 FPS (1152 SPF)
Compression mode            : Lossy
Delay relative to video     : -120 ms
Stream size                 : 121 MiB (2%)
Language                    : English



Скриншоты:
[+] Всего файлов в раздаче - 1:
Аполлон_ найденные видео.ts7.08 GB

Похожие раздачи по запросу - discovery:
2020-08-18 U Discovery. Древние легенды с Меган Фокс / Legends of the Lost with Megan Fox [01x01-03 из 04] (2018) HDTVRip от GeneralFilm | D 1.55 GB ↑ 123 ↓ 9
2020-06-12 U Discovery. Астронавты SpaceX: первый полёт / Space Launch: America Returns To Space (2020) WEBRip 720p | P2 1.68 GB ↑ 31 ↓ 12
2020-03-27 U Discovery. Как устроена Вселенная / How the Universe Works [08x01-03 из 09] (2020) HDTVRip 720p от GeneralFilm | D 4.02 GB ↑ 130 ↓ 31
2019-05-26 U Pink Floyd - Discovery [16CD Box EMI Japan] (2011) FLAC 5.07 GB ↑ 322 ↓ 355
2018-11-30 U Открытие / The Discovery (2017) WEBRip-AVC от OlLanDGroup | NewStudio 1.46 GB ↑ 194 ↓ 38
2017-04-03 U Открытие / The Discovery (2017) WEBRip 1080p от qqss44 | NewStudio 4К4.42 GB ↑ 784 ↓ 10

Отзывы
Зарегистрируйтесь чтобы добавить комментарий.
Загрузите программу
  uTorrent.exe
Обратная связь
Copyleft ©