↑↓torrent.by
Поиск
Логин: Регистрация
Пароль: Восстановить пароль

Звездный путь: Нижние палубы / Star Trek: Lower Decks [S01] (2020) WEB-DL 720p | LostFilm

Скачать zvezdnyy-put-nizhnie-paluby-star-trek-lower-decks-s01-2020-web-dl-720p-lostfilm.torrent
U Магнитная ссылка Размер: 6.34 GB Раздают: 24 Качают: 26 Добавлен: 2020-10-12 11:57:54
Звездный путь: Нижние палубы / Star Trek: Lower Decks [S01] (2020) WEB-DL 720p | LostFilm

Название: Звёздный путь: Нижние палубы
Оригинальное название: Star Trek: Lower Decks
Год выхода: 2020
Жанр: мультфильм, фантастика, боевик, комедия, приключения
Режиссер: Джуно Джон Ли, Бэрри Дж. Келли
В ролях: Тоуни Ньюсом, Джек Куэйд, Ноэль Кристи Уэллс, джин КордероДоун Льюис, Джерри О’Коннелл, Фред Таташиор, Джиллиан Вигмэн, Джессика МакКенна, Фил ЛаМарр и другие.
О фильме:
Пока команды «Энтерпрайза» и «Дискавери» вершат судьбы вселенной, где-то на нижней палубе ничем не примечательного корабля «Серритос» своим ходом идет жизнь четырех младших офицеров. Энсин Маринер (Тоуни Ньюсом) — крутая девчонка, которая свободно владеет несколькими инопланетными языками, орудует клингонским мечом, разбирается во флоре и фауне многих миров, но нарушение устава в недавнем прошлом прервало ее карьерный рост. Коллега Маринер, энсин Боймлер (Джек Куэйд), напротив, во всем подчиняется правилам, боится отступить от них хоть на миллиметр и мечтает когда-нибудь управлять кораблем на капитанском мостике. Компанию в незамысловатых приключениях им составляют энсин Резерфорд (Юджин Кордеро) с вечно сбоящим кибернетическим имплантом и энсин Тенди (Ноэль Кристи Уэллс), восторженный новичок Звездного флота. Вместе герои выполняют грязную, но необходимую работу, которая иногда приводит к непредсказуемым событиям.

Страна: США
Студия: 219 Productions, CBS Eye Animation Productions, Roddenberry Entertainment, Secret Hideout
Продолжительность: ~ 00:26:00 серия
Премьера (мир): 4 августа 2020
Перевод: Профессиональный (многоголосый закадровый) | LostFilm

Файл
Кодек: MPEG-4 AVC/x.264
Качество: WEBRip 720p (Амазон)
Видео: 1280x720 (16:9), 24.000 fps, ~2533 kbps
Звук:
Аудио # 1: AC3, 48 kHz, 6 ch, 384 kbps | LostFilm
Аудио # 2: E-AC3, 48 kHz, 6 ch, 640 kbps | английский
Субтитры: английские
Реклама: отсутствует

Семпл


[+] Релиз:

Релиз: Grandfather61 (Skyn s61)
Дорожка 1 получена наложением выделенных голосов от «LostFilm» на центр оригинального AC3.
Монтаж, работа со звуком: Grandfather61 (Skyn s61)



[+] MediaInfo:

Общее
Уникальный идентификатор                 : 305106975847503007803879402149283346762 (0xE5897752803B5BACE7405D5046CBB94A)
Полное имя                               : G:Star.Trek.Lower.Decks.S01.720p.WEB-DL.LostFilmStar.Trek.Lower.Decks.S01E01.720p.WEB-DL.LostFilm.mkv
Формат                                   : Matroska
Версия формата                           : Version 4
Размер файла                             : 667 Мбайт
Продолжительность                        : 26 м. 12 с.
Общий поток                              : 3559 Кбит/сек
Дата кодирования                         : UTC 2020-08-24 09:52:10
Программа кодирования                    : mkvmerge v49.0.0 ('Sick Of Losing Soulmates') 64-bit
Библиотека кодирования                   : libebml v1.4.0 + libmatroska v1.6.1

Видео
Идентификатор                            : 1
Формат                                   : AVC
Формат/Информация                        : Advanced Video Codec
Профиль формата                          : High@L3.1
Настройки формата                        : CABAC / 4 Ref Frames
Параметр CABAC формата                   : Да
Параметр RefFrames формата               : 4 кадра
Идентификатор кодека                     : V_MPEG4/ISO/AVC
Продолжительность                        : 26 м. 12 с.
Вид битрейта                             : Постоянный
Битрейт                                  : 2533 Кбит/сек
Номинальный битрейт                      : 6000 Кбит/сек
Ширина                                   : 1280 пикселей
Высота                                   : 720 пикселей
Соотношение сторон                       : 16:9
Режим частоты кадров                     : Постоянный
Частота кадров                           : 24,000 кадра/сек
Цветовое пространство                    : YUV
Субдискретизация насыщенности            : 4:2:0
Битовая глубина                          : 8 бит
Тип развёртки                            : Прогрессивная
Бит/(Пиксели*Кадры)                      : 0.115
Размер потока                            : 475 Мбайт (71%)
Заголовок                                : Star.Trek.Lower.Decks 1x01 (2020) - Release for Grandfather61
Язык                                     : English
Default                                  : Да
Forced                                   : Нет
Цветовой диапазон                        : Limited
Основные цвета                           : BT.709
Характеристики трансфера                 : BT.709
Коэффициенты матрицы                     : BT.709

Аудио #1
Идентификатор                            : 2
Формат                                   : AC-3
Формат/Информация                        : Audio Coding 3
Коммерческое название                    : Dolby Digital
Идентификатор кодека                     : A_AC3
Продолжительность                        : 26 м. 12 с.
Вид битрейта                             : Постоянный
Битрейт                                  : 384 Кбит/сек
Каналы                                   : 6 каналов
ChannelLayout                            : L R C LFE Ls Rs
Частота                                  : 48,0 КГц
Частота кадров                           : 31,250 кадров/сек (1536 SPF)
Метод сжатия                             : С потерями
Размер потока                            : 72,0 Мбайт (11%)
Заголовок                                : LostFilm
Язык                                     : Russian
Default                                  : Да
Forced                                   : Нет

Аудио #2
Идентификатор                            : 3
Формат                                   : E-AC-3
Формат/Информация                        : Enhanced AC-3
Коммерческое название                    : Dolby Digital Plus
Идентификатор кодека                     : A_EAC3
Продолжительность                        : 26 м. 12 с.
Вид битрейта                             : Постоянный
Битрейт                                  : 640 Кбит/сек
Каналы                                   : 6 каналов
ChannelLayout                            : L R C LFE Ls Rs
Частота                                  : 48,0 КГц
Частота кадров                           : 31,250 кадров/сек (1536 SPF)
Метод сжатия                             : С потерями
Размер потока                            : 120 Мбайт (18%)
Язык                                     : English
Default                                  : Нет
Forced                                   : Нет

Текст
Идентификатор                            : 4
Формат                                   : UTF-8
Идентификатор кодека                     : S_TEXT/UTF8
Идентификатор кодека/Информация          : UTF-8 Plain Text
Продолжительность                        : 25 м. 50 с.
Битрейт                                  : 112 бит/сек
ElementCount                             : 602
Размер потока                            : 21,2 Кбайт (0%)
Заголовок                                : SDH
Язык                                     : English
Default                                  : Нет
Forced                                   : Нет




Скриншоты:
[+] Всего файлов в раздаче - 10:
Star.Trek.Lower.Decks.S01E01.720p.WEB-DL.LostFilm.mkv666.97 MB
Star.Trek.Lower.Decks.S01E02.720p.WEB-DL.LostFilm.mkv563.01 MB
Star.Trek.Lower.Decks.S01E03.720p.WEB-DL.LostFilm.mkv504.18 MB
Star.Trek.Lower.Decks.S01E04.720p.WEB-DL.LostFilm.mkv638.54 MB
Star.Trek.Lower.Decks.S01E05.720p.WEB-DL.LostFilm.mkv577.55 MB
Star.Trek.Lower.Decks.S01E06.720p.WEB-DL.LostFilm.mkv663.69 MB
Star.Trek.Lower.Decks.S01E07.720p.WEB-DL.LostFilm.mkv590.22 MB
Star.Trek.Lower.Decks.S01E08.720p.WEB-DL.LostFilm.mkv575.70 MB
Star.Trek.Lower.Decks.S01E09.720p.WEB-DL.LostFilm.mkv945.64 MB
Star.Trek.Lower.Decks.S01E10.720p.WEB-DL.LostFilm.mkv771.55 MB

Похожие раздачи по запросу - звездный:
2020-08-07 U Звездный путь: Нижние палубы / Star Trek: Lower Decks [01x01 из 10] (2020) WEBRip 1080p от Kerob | L 1.32 GB ↑ 31 ↓ 11

Отзывы
Зарегистрируйтесь чтобы добавить комментарий.
Загрузите программу
  uTorrent.exe
Обратная связь
Copyleft ©