↑↓torrent.by
Поиск
Логин: Регистрация
Пароль: Восстановить пароль

BBC: Муравьиная гора с Дэвидом Аттенборо / David Attenborough's Ant Mountain (2017) HDTV 1080i | P1

Скачать bbc-muravinaya-gora-s-devidom-attenboro-david-attenborough-ant-mountain-2017-hdtv-1080i-p1.torrent
U Магнитная ссылка Размер: 2.54 GB Раздают: 49 Качают: 13 Добавлен: 2020-10-12 11:58:02
BBC: Муравьиная гора с Дэвидом Аттенборо / David Attenborough's Ant Mountain (2017) HDTV  1080i | P1

Название: Муравьиная гора с Дэвидом Аттенборо
Оригинальное название: David Attenborough's Ant Mountain
Год выхода: 2017
Жанр: Документальный, начуно-популярный
Режиссер: Мартин Дорн, Джо Лонкрейн
В ролях: Дэвид Аттенборо

О фильме:
Более миллиарда рыжих лесных муравьев, которые сосуществуют в мире в двух "городах" - это одна потрясающая история, проливающая свет на тайны муравьиных сообществ и вызывающая все новые вопросы у ученых.


Страна: Австрия, Великобритания, Австралия
Студия: Terra Mater Factual Studios, BBC, Ammonite ltd, ABC Australia
Продолжительность: 00:52:00
Перевод: Профессиональный (одноголосый закадровый)

Файл
Кодек: AVC/H.264
Качество: HDTV  1080i
Видео: 1920x1080 (16:9), AVC (H.264), High@L4, 6432 kbps, 25fps, 0.124 bit/pixel
Звук:
Русский 48 kHz, MPEG Layer 2, 2 ch, ~160.00 kbps avg SDI Media
Русский 48 kHz, MPEG Layer 2, 2 ch, ~128.00 kbps avg Видеофильм ТВ
Английский 48 kHz, MPEG Layer 2, 2 ch, ~128.00 kbps avg

Семпл

Релиз от: kyba
[+] MediaInfo
Complete name               : F:НаладкиМуравьиная гора Дэвида Аттенборо.mkv
Format                      : Matroska
Format version              : Version 4
File size                   : 2.54 GiB
Duration                    : 52 min 0 s
Overall bit rate            : 6 987 kb/s
Encoded date                : UTC 2020-10-11 16:52:28
Writing application         : mkvmerge v6.6.0 ('The Edge Of The In Between') built on Dec  1 2013 17:55:00
Writing library             : libebml v1.3.0 + libmatroska v1.4.1

Video
ID                          : 1
Format                      : AVC
Format/Info                 : Advanced Video Codec
Format profile              : High@L4
Format settings             : CABAC / 4 Ref Frames
Format settings, CABAC      : Yes
Format settings, Reference  : 4 frames
Codec ID                    : V_MPEG4/ISO/AVC
Duration                    : 52 min 0 s
Bit rate                    : 6 432 kb/s
Width                       : 1 920 pixels
Height                      : 1 080 pixels
Display aspect ratio        : 16:9
Frame rate mode             : Constant
Frame rate                  : 25.000 FPS
Standard                    : Component
Color space                 : YUV
Chroma subsampling          : 4:2:0
Bit depth                   : 8 bits
Scan type                   : Interlaced
Scan type, store method     : Separated fields
Scan order                  : Top Field First
Bits/(Pixel*Frame)          : 0.124
Stream size                 : 2.34 GiB (92%)
Default                     : Yes
Forced                      : No
Color range                 : Limited
Color primaries             : BT.709
Transfer characteristics    : BT.709
Matrix coefficients         : BT.709

Audio #1
ID                          : 2
Format                      : MPEG Audio
Format version              : Version 1
Format profile              : Layer 2
Codec ID                    : A_MPEG/L2
Codec ID/Hint               : MP2
Duration                    : 52 min 0 s
Bit rate mode               : Constant
Bit rate                    : 160 kb/s
Channel(s)                  : 2 channels
Sampling rate               : 48.0 kHz
Compression mode            : Lossy
Stream size                 : 59.5 MiB (2%)
Title                       : SDI Media
Language                    : Russian
Default                     : Yes
Forced                      : Yes

Audio #2
ID                          : 3
Format                      : MPEG Audio
Format version              : Version 1
Format profile              : Layer 2
Codec ID                    : A_MPEG/L2
Codec ID/Hint               : MP2
Duration                    : 52 min 0 s
Bit rate mode               : Constant
Bit rate                    : 128 kb/s
Channel(s)                  : 2 channels
Sampling rate               : 48.0 kHz
Compression mode            : Lossy
Stream size                 : 47.6 MiB (2%)
Title                       : Видеофильм ТВ
Language                    : Russian
Default                     : No
Forced                      : No

Audio #3
ID                          : 4
Format                      : MPEG Audio
Format version              : Version 1
Format profile              : Layer 2
Codec ID                    : A_MPEG/L2
Codec ID/Hint               : MP2
Duration                    : 52 min 0 s
Bit rate mode               : Constant
Bit rate                    : 128 kb/s
Channel(s)                  : 2 channels
Sampling rate               : 48.0 kHz
Compression mode            : Lossy
Stream size                 : 47.6 MiB (2%)
Language                    : English
Default                     : No
Forced                      : No



Скриншоты:
[+] Всего файлов в раздаче - 1:
Муравьиная гора Дэвида Аттенборо.mkv2.54 GB

Отзывы
Зарегистрируйтесь чтобы добавить комментарий.
Загрузите программу
  uTorrent.exe
Обратная связь
Copyleft ©