↑↓torrent.by
Поиск
Логин: Регистрация
Пароль: Восстановить пароль

Куратор (2019) WEB-DLRip-AVC

Скачать kurator-2019-web-dlrip-avc.torrent
U Магнитная ссылка Размер: 1.46 GB Раздают: 143 Качают: 44 Добавлен: 2020-10-12 17:03:12
Куратор (2019) WEB-DLRip-AVC

«#жизньжёстче»

Название: Куратор
Год выхода: 2019
Жанр: Драма, криминал, детектив

Режиссер: Петр Левченко
В ролях: Юрий Цурило, Михаил Гомиашвили, Бека Лемонджава, Лариса Домаскина, Дмитрий Муляр, Мирослава Малышкина-Малиновская, Манана Ключевская, Юрий Тузов, Михаил Хуранов, Милан Малышкин-Малиновский

О фильме:
В областном центре Кузнецкий в собственном кабинете убит мэр. Убийца – Димур Кавсадзе, подельник администрации Кузнецкого по коммерческой застройке. На город обрушивается шквал общественного беспокойства. Александр Данилин – негласный куратор, посредник между бизнесом и властями, включается в привычную работу по устранению неприятностей и нормализации жизни Кузнецкого. Причиной трагедии стала стройка, которая как опухоль разрастается вокруг Кузнецкого, являясь источником выгоды для властей и местных застройщиков. Она «пожирает» свободные земли, души людей и даже то, что, казалось, существует вне закона выгоды — семью. Стройку не могут остановить ни смерти людей, ни здравый смысл…

Страна: Россия, Грузия
Студия: 20 Steps Productions, Атлантик
Продолжительность: 01:16:26
Перевод: Не требуется

Файл
Качество: WEB-DLRip-AVC
Формат: MKV
Кодек: MPEG-4 AVC
Видео: 1024x552 (1.85:1), 24 fps, MPEG-4 AVC, 2347 Кbps avg, 0.173 bit/pixel
Аудио: AC3, 48 kHz, 6 ch, ~384.00 kbps avg | русский |
Субтитры: Отсутствуют

***Реклама, любого вида, отсутствует.


[+] Инфо-файл
Общее
Уникальный идентификатор                 : 278899537693084072608377314296869643266 (0xD1D218DC531983A2A9562A65E0176402)
Полное имя                               : Kurator.2019.WEB-DLRip.1.46Gb.x264.mkv
Формат                                   : Matroska
Версия формата                           : Version 4
Размер файла                             : 1,46 Гбайт
Продолжительность                        : 1 ч. 16 м.
Общий поток                              : 2 727 Кбит/сек
Название фильма                          : Куратор (2019)
Дата кодирования                         : UTC 2020-10-12 08:03:18
Программа кодирования                    : mkvmerge v47.0.0 ('Black Flag') 64-bit
Библиотека кодирования                   : libebml v1.3.10 + libmatroska v1.5.2
Обложка                                  : Yes
Attachments                              : cover.jpg

Видео
Идентификатор                            : 1
Формат                                   : AVC
Формат/Информация                        : Advanced Video Codec
Профиль формата                          : High@L4.1
Настройки формата                        : CABAC / 10 Ref Frames
Параметр CABAC формата                   : Да
Параметр RefFrames формата               : 10 кадров
Идентификатор кодека                     : V_MPEG4/ISO/AVC
Продолжительность                        : 1 ч. 16 м.
Битрейт                                  : 2 347 Кбит/сек
Ширина                                   : 1 024 пикселя
Высота                                   : 552 пикселя
Соотношение сторон                       : 1,85:1
Режим частоты кадров                     : Постоянный
Частота кадров                           : 24,000 кадра/сек
Цветовое пространство                    : YUV
Субдискретизация насыщенности            : 4:2:0
Битовая глубина                          : 8 бит
Тип развёртки                            : Прогрессивная
Бит/(Пиксели*Кадры)                      : 0.173
Размер потока                            : 1,25 Гбайт (86%)
Заголовок                                : #stillet
Библиотека кодирования                   : x264 core 152 r2851bm ba24899
Настройки программы                      : cabac=1 / ref=10 / deblock=1:-2:-2 / analyse=0x3:0x113 / me=umh / subme=10 / psy=1 / psy_rd=1.00:0.15 / mixed_ref=1 / me_range=32 / chroma_me=1 / trellis=2 / 8x8dct=1 / cqm=0 / deadzone=21,11 / fast_pskip=0 / chroma_qp_offset=-3 / threads=8 / lookahead_threads=3 / sliced_threads=0 / nr=0 / decimate=0 / interlaced=0 / bluray_compat=0 / constrained_intra=0 / bframes=12 / b_pyramid=2 / b_adapt=2 / b_bias=0 / direct=3 / weightb=1 / open_gop=0 / weightp=2 / keyint=240 / keyint_min=23 / scenecut=40 / intra_refresh=0 / rc=2pass / mbtree=0 / bitrate=2347 / ratetol=1.0 / qcomp=0.60 / qpmin=0 / qpmax=69 / qpstep=4 / cplxblur=20.0 / qblur=0.5 / ip_ratio=1.40 / pb_ratio=1.30 / aq=1:1.00
Язык                                     : Russian
Default                                  : Да
Forced                                   : Нет

Аудио
Идентификатор                            : 2
Формат                                   : AC-3
Формат/Информация                        : Audio Coding 3
Коммерческое название                    : Dolby Digital
Идентификатор кодека                     : A_AC3
Продолжительность                        : 1 ч. 16 м.
Вид битрейта                             : Постоянный
Битрейт                                  : 384 Кбит/сек
Каналы                                   : 6 каналов
Channel layout                           : L R C LFE Ls Rs
Частота                                  : 48,0 КГц
Частота кадров                           : 31,250 кадров/сек (1536 SPF)
Метод сжатия                             : С потерями
Размер потока                            : 210 Мбайт (14%)
Язык                                     : Russian
Service kind                             : Complete Main
Default                                  : Да
Forced                                   : Да




Скриншоты:
[+] Всего файлов в раздаче - 1:
Kurator.2019.WEB-DLRip.1.46Gb.x264.mkv1.46 GB

Похожие раздачи по запросу - куратор:
2020-10-13 U Куратор (2019) WEB-DLRip от Files-x 1.50 GB ↑ 37 ↓ 14
2020-10-12 U Куратор (2019) WEB-DLRip от Portablius 743.70 MB ↑ 68 ↓ 37
2020-10-12 U Куратор (2019) WEB-DL 1080p от ExKinoRay 2.94 GB ↑ 73 ↓ 78
2020-10-12 U Куратор (2019) WEB-DLRip от ExKinoRay 1.36 GB ↑ 91 ↓ 54

Отзывы
Зарегистрируйтесь чтобы добавить комментарий.
Загрузите программу
  uTorrent.exe
Обратная связь
Copyleft ©