↑↓torrent.by
Поиск
Логин: Регистрация
Пароль: Восстановить пароль

Путешественник. Начало (2018) WEB-DL 1080p от ExKinoRay

Скачать puteshestvennik-nachalo-2018-web-dl-1080p-ot-exkinoray.torrent
U Магнитная ссылка Размер: 2.83 GB Раздают: 47 Качают: 12 Добавлен: 2020-10-13 05:19:54
Путешественник. Начало (2018) WEB-DL 1080p от ExKinoRay

Оригинальное название: Путешественник. Начало
Год выпуска: 2018
Жанр:  Приключения
Режиссер: Нияз Абдигапар
В ролях: Мурат Бисенбин, Гани Ажикенов, Молдир Мекенбаева, Нуриддин Бидосов, Олжас Туяков, Алнура Жуматаева, Темирлан Тастайбеков, Марина Нетеда

Описание:  В один из дней родные покойного дедушки узнают, что перед смертью он написал завещание. Так как дедушка был путешественником, для получения наследства он приложил загадку — карту мира, которую нужно отгадать «с головы до ног, полностью», чтобы получить наследство. В поисках ответа на эту странную загадку, наследники вшестером решают навестить загородный дом путешественника, но дом оказывается ловушкой для них.

Страна: Казахстан
Студия: Enterprise Production
Продолжительность: 01:16:23
Перевод: Не требуется

Формат: MKV
Качество: WEB-DL 1080p
Видео: MPEG-4 AVC, 1920x800 (2.40:1), 24.000 fps, 5009 Kbps, 0.136 bit/pixel
Аудио : 48 kHz, AC3, 2.0, 192 Kbps | RUS |

Релиз:

Автор релиза:


[+] ОтчетМедиаИнфо

General
Unique ID                                : 191940127700165104163047869605922260092 (0x906652EE2C30ED07BA7DB67E1334C47C)
Complete name                            : F:Puteshestvennik.Nachalo.2018.WEB-DL.1080p.ExKinoRay.mkv
Format                                   : Matroska
Format version                           : Version 2
File size                                : 2.83 GiB
Duration                                 : 1 h 16 min
Overall bit rate                         : 5 307 kb/s
Movie name                               : Путешественник. Начало 2018 from ExKinoRay
Encoded date                             : UTC 2020-10-12 16:32:11
Writing application                      : mkvmerge v5.6.0 ('Kenya Kane') built on May 27 2012 16:44:04
Writing library                          : libebml v1.2.3 + libmatroska v1.3.0

Video
ID                                       : 1
Format                                   : AVC
Format/Info                              : Advanced Video Codec
Format profile                           : High@L4
Format settings, CABAC                   : Yes
Format settings, ReFrames                : 4 frames
Codec ID                                 : V_MPEG4/ISO/AVC
Duration                                 : 1 h 16 min
Bit rate                                 : 5 009 kb/s
Width                                    : 1 920 pixels
Height                                   : 800 pixels
Display aspect ratio                     : 2.40:1
Frame rate mode                          : Constant
Frame rate                               : 24.000 FPS
Color space                              : YUV
Chroma subsampling                       : 4:2:0
Bit depth                                : 8 bits
Scan type                                : Progressive
Bits/(Pixel*Frame)                       : 0.136
Stream size                              : 2.67 GiB (94%)
Default                                  : Yes
Forced                                   : No

Audio
ID                                       : 2
Format                                   : AC-3
Format/Info                              : Audio Coding 3
Mode extension                           : CM (complete main)
Format settings, Endianness              : Big
Codec ID                                 : A_AC3
Duration                                 : 1 h 16 min
Bit rate mode                            : Constant
Bit rate                                 : 192 kb/s
Channel(s)                               : 2 channels
Channel positions                        : Front: L R
Sampling rate                            : 48.0 kHz
Frame rate                               : 31.250 FPS (1536 spf)
Compression mode                         : Lossy
Stream size                              : 105 MiB (4%)
Language                                 : Russian
Default                                  : Yes
Forced                                   : No




Скриншоты:
[+] Всего файлов в раздаче - 1:
Puteshestvennik.Nachalo.2018.WEB-DL.1080p.ExKinoRay.mkv2.83 GB

Отзывы
Зарегистрируйтесь чтобы добавить комментарий.
Загрузите программу
  uTorrent.exe
Обратная связь
Copyleft ©