↑↓torrent.by
Поиск
Логин: Регистрация
Пароль: Восстановить пароль

Медный всадник России (2019) WEB-DLRip-AVC от ExKinoRay | iTunes

Скачать mednyy-vsadnik-rossii-2019-web-dlrip-avc-ot-exkinoray-itunes.torrent
U Магнитная ссылка Размер: 1.45 GB Раздают: 73 Качают: 44 Добавлен: 2020-10-16 11:48:32
Медный всадник России (2019) WEB-DLRip-AVC от ExKinoRay | iTunes

Название: Медный всадник России
Год выхода: 2019
Жанр:  История, драма
Режиссер: Василий Ливанов
В ролях: Ольга Белова, Андрей Соколов, Евгений Редько, Валерия Ланская, Денис Ткачев, Борис Хвошнянский, Борис Ливанов мл., Юрий Лопарев, Евгений Стеблов, Владимир Тягичев, Владимир Ильин, Юрий Стоянов, Мария Свирид, Юрий Назаров

Описание:   История создания памятника Петру I, благодаря поэме Александра Сергеевича Пушкина известного как «Медный всадник». По приглашению императрицы Екатерины II скульптор Этьен-Морис Фальконе приезжает из Франции для создания монумента. Благодаря кропотливой работе и мучительным творческим поискам мастера памятник становится не просто произведением искусства, но одним из символов России.

Страна: Россия
Студия: Кинокомпания «Круглый стол»
Продолжительность: 01:41:58
Перевод: Не требуется | iTunes

Файл
Формат: MKV
Качество: WEB-DLRip-AVC
Видео: MPEG-4 AVC, 720x404, 1655 Kbps, 24.000 fps
Аудио: Russian: AC3, 48.0 KHz, 6 ch, 384 kbps | iTunes | RUS |
Субтитры: Нет

Релиз:

Автор релиза:


[+] MediaInfo
General
Unique ID                                : 228628792993056088131763943872447575290 (0xAC004DC999F77F1C82569893D8BEF4FA)
Complete name                            : F:Медный.всадник.2019.WEB-DL.AVC.ExKinoRay.mkv
Format                                   : Matroska
Format version                           : Version 2
File size                                : 1.45 GiB
Duration                                 : 1 h 41 min
Overall bit rate                         : 2 041 kb/s
Movie name                               : Медный всадник 2019 from ExKinoRay
Encoded date                             : UTC 2020-10-16 02:10:27
Writing application                      : mkvmerge v5.6.0 ('Kenya Kane') built on May 27 2012 16:44:04
Writing library                          : libebml v1.2.3 + libmatroska v1.3.0

Video
ID                                       : 1
Format                                   : AVC
Format/Info                              : Advanced Video Codec
Format profile                           : High@L4.1
Format settings, CABAC                   : Yes
Format settings, ReFrames                : 11 frames
Codec ID                                 : V_MPEG4/ISO/AVC
Duration                                 : 1 h 41 min
Bit rate                                 : 1 655 kb/s
Width                                    : 720 pixels
Height                                   : 404 pixels
Display aspect ratio                     : 16:9
Frame rate mode                          : Constant
Frame rate                               : 24.000 FPS
Color space                              : YUV
Chroma subsampling                       : 4:2:0
Bit depth                                : 8 bits
Scan type                                : Progressive
Bits/(Pixel*Frame)                       : 0.237
Stream size                              : 1.15 GiB (79%)
Title                                    : Enigma
Writing library                          : x264 core 152 r2851 ba24899
Encoding settings                        : cabac=1 / ref=11 / deblock=1:-2:-2 / analyse=0x3:0x113 / me=umh / subme=10 / psy=1 / psy_rd=1.00:0.05 / mixed_ref=1 / me_range=32 / chroma_me=1 / trellis=2 / 8x8dct=1 / cqm=0 / deadzone=21,11 / fast_pskip=0 / chroma_qp_offset=-3 / threads=12 / lookahead_threads=2 / sliced_threads=0 / nr=0 / decimate=0 / interlaced=0 / bluray_compat=0 / constrained_intra=0 / bframes=9 / b_pyramid=2 / b_adapt=2 / b_bias=0 / direct=3 / weightb=1 / open_gop=0 / weightp=2 / keyint=240 / keyint_min=24 / scenecut=40 / intra_refresh=0 / rc=2pass / mbtree=0 / bitrate=1655 / ratetol=1.0 / qcomp=0.60 / qpmin=0 / qpmax=51 / qpstep=4 / cplxblur=20.0 / qblur=0.5 / ip_ratio=1.30 / pb_ratio=1.20 / aq=1:1.00
Default                                  : Yes
Forced                                   : No
Color range                              : Limited
Color primaries                          : BT.709
Transfer characteristics                 : BT.709
Matrix coefficients                      : BT.709

Audio
ID                                       : 2
Format                                   : AC-3
Format/Info                              : Audio Coding 3
Mode extension                           : CM (complete main)
Format settings, Endianness              : Big
Codec ID                                 : A_AC3
Duration                                 : 1 h 41 min
Bit rate mode                            : Constant
Bit rate                                 : 384 kb/s
Channel(s)                               : 6 channels
Channel positions                        : Front: L C R, Side: L R, LFE
Sampling rate                            : 48.0 kHz
Frame rate                               : 31.250 FPS (1536 spf)
Compression mode                         : Lossy
Stream size                              : 280 MiB (19%)
Title                                    : iTunes
Language                                 : Russian
Default                                  : Yes
Forced                                   : No

Menu
00:00:00.000                             : en:Глава 1
00:06:12.958                             : en:Глава 2
00:14:05.124                             : en:Глава 3
00:22:50.874                             : en:Глава 4
00:30:49.040                             : en:Глава 5
00:38:20.665                             : en:Глава 6
00:45:57.581                             : en:Глава 7
00:51:38.872                             : en:Глава 8
00:58:33.205                             : en:Глава 9
01:04:40.288                             : en:Глава 10
01:13:36.288                             : en:Глава 11
01:20:48.579                             : en:Глава 12
01:26:23.829                             : en:Глава 13
01:32:01.370                             : en:Глава 14




Скриншоты:
[+] Всего файлов в раздаче - 1:
Медный.всадник.2019.WEB-DL.AVC.ExKinoRay.mkv1.45 GB

Похожие раздачи по запросу - медный:
2020-10-17 U Медный всадник России (2019) WEB-DLRip от Files-x | iTunes 1.46 GB ↑ 75 ↓ 32
2020-10-17 U Медный всадник России (2019) WEB-DL 1080p от ExKinoRay | iTunes 3.96 GB ↑ 73 ↓ 22

Отзывы
Зарегистрируйтесь чтобы добавить комментарий.
Загрузите программу
  uTorrent.exe
Обратная связь
Copyleft ©