↑↓torrent.by
Поиск
Логин: Регистрация
Пароль: Восстановить пароль

Господин Дьявол / Il signor Diavolo (2019) BDRip 720p от селезень | iTunes

Скачать gospodin-dyavol-il-signor-diavolo-2019-bdrip-720p-ot-selezen-itunes.torrent
U Магнитная ссылка Размер: 6.03 GB Раздают: 66 Качают: 43 Добавлен: 2020-10-16 11:48:56
Господин Дьявол / Il signor Diavolo (2019) BDRip 720p от селезень | iTunes

Название: Господин Дьявол
Оригинальное название: Il signor Diavolo
Год выхода: 2019
Жанр: Ужасы, триллер, детектив
Режиссер: Пупи Авати
В ролях: Габриэль Ло Джудиче, Филиппо Франкини, Чезаре Кремонини, Массимо Бонетти, Лино Каполиккьо, Кьяра Казелли, Джанни Кавина, Алессандро Абер, Андреа Ронкато, Ева Антония Гримальди

О фильме: Молодой полицейский Фурио Моменте отправляется в регион Венето, чтобы расследовать загадочное и шокирующее преступления: подросток убил одного из своих сверстников, утверждая, что он убил самого дьявола.

Страна: Италия
Студия: Duea Film, Ruggente Film, Rai Cinema
Продолжительность: 01:30:41
Перевод: Дублированный | iTunes

Качество: BDRip 720p
Видео: MPEG-4 AVC, 1280x720, 8495 Kbit/s, 24.000 fps
Аудио #01: 48 kHz, AC3, 5.1, 384 Kbps | iTunes | RUS |
Аудио #02: 48 kHz, AC3, 5.1, 640 Kbps | Оригинал | ITA |
Субтитры: Нет

Релиз: Присоединяйся к:


[+] MI
General
Unique ID                   : 229389266379982111514145085367186127885 (0xAC92C40531233D7C4C8C667C99647C0D)
Complete name               : D:Video111Il.signor.Diavolo.2019.BDRip.720p.seleZen.mkv
Format                      : Matroska
Format version              : Version 4
File size                   : 6.03 GiB
Duration                    : 1 h 30 min
Overall bit rate            : 9 521 kb/s
Movie name                  : Pupi Avati - Il signor Diavolo (2019) from селезень
Encoded date                : UTC 2020-10-16 01:38:22
Writing application         : mkvmerge v40.0.0 ('Old Town Road + Pony') 64-bit
Writing library             : libebml v1.3.9 + libmatroska v1.5.2

Video
ID                          : 1
Format                      : AVC
Format/Info                 : Advanced Video Codec
Format profile              : High@L4.1
Format settings             : CABAC / 9 Ref Frames
Format settings, CABAC      : Yes
Format settings, Reference  : 9 frames
Codec ID                    : V_MPEG4/ISO/AVC
Duration                    : 1 h 30 min
Bit rate                    : 8 495 kb/s
Width                       : 1 280 pixels
Height                      : 720 pixels
Display aspect ratio        : 16:9
Frame rate mode             : Constant
Frame rate                  : 24.000 FPS
Color space                 : YUV
Chroma subsampling          : 4:2:0
Bit depth                   : 8 bits
Scan type                   : Progressive
Bits/(Pixel*Frame)          : 0.384
Stream size                 : 5.38 GiB (89%)
Title                       : -EA
Writing library             : x264 core 158 r2984+49 6932f4a t_mod_New [0-bit@all X86_64]
Encoding settings           : cabac=1 / ref=9 / deblock=1:-3:-3 / analyse=0x3:0x133 / me=umh / subme=10 / psy=1 / fade_compensate=0.00 / psy_rd=1.03:0.00 / mixed_ref=1 / me_range=32 / chroma_me=1 / trellis=2 / 8x8dct=1 / cqm=0 / deadzone=21,11 / fast_pskip=0 / chroma_qp_offset=-2 / threads=18 / lookahead_threads=3 / sliced_threads=0 / nr=0 / decimate=0 / interlaced=0 / bluray_compat=0 / constrained_intra=0 / fgo=0 / bframes=9 / b_pyramid=2 / b_adapt=2 / b_bias=0 / direct=3 / weightb=1 / open_gop=0 / weightp=2 / keyint=240 / keyint_min=24 / scenecut=40 / intra_refresh=0 / rc_lookahead=60 / rc=crf / mbtree=0 / crf=14.0500 / qcomp=0.65 / qpmin=0:0:0 / qpmax=69:69:69 / qpstep=4 / vbv_maxrate=62500 / vbv_bufsize=78125 / crf_max=0.0 / nal_hrd=none / filler=0 / ip_ratio=1.40 / pb_ratio=1.30 / aq=3:0.80 / aq-sensitivity=10.00 / aq-factor=1.00:1.00:1.00 / aq2=0 / aq3=0
Language                    : Italian
Default                     : Yes
Forced                      : No
Color range                 : Limited
Color primaries             : BT.709
Transfer characteristics    : BT.709
Matrix coefficients         : BT.709

Audio #1
ID                          : 2
Format                      : AC-3
Format/Info                 : Audio Coding 3
Commercial name             : Dolby Digital
Codec ID                    : A_AC3
Duration                    : 1 h 30 min
Bit rate mode               : Constant
Bit rate                    : 384 kb/s
Channel(s)                  : 6 channels
Channel layout              : L R C LFE Ls Rs
Sampling rate               : 48.0 kHz
Frame rate                  : 31.250 FPS (1536 SPF)
Compression mode            : Lossy
Stream size                 : 249 MiB (4%)
Title                       : iTunes
Language                    : Russian
Service kind                : Complete Main
Default                     : Yes
Forced                      : Yes

Audio #2
ID                          : 3
Format                      : AC-3
Format/Info                 : Audio Coding 3
Commercial name             : Dolby Digital
Codec ID                    : A_AC3
Duration                    : 1 h 30 min
Bit rate mode               : Constant
Bit rate                    : 640 kb/s
Channel(s)                  : 6 channels
Channel layout              : L R C LFE Ls Rs
Sampling rate               : 48.0 kHz
Frame rate                  : 31.250 FPS (1536 SPF)
Compression mode            : Lossy
Stream size                 : 415 MiB (7%)
Title                       : Original
Language                    : Italian
Service kind                : Complete Main
Default                     : No
Forced                      : No

Menu
00:00:00.000                : :Chapter 01
00:09:35.583                : :Chapter 02
00:14:53.042                : :Chapter 03
00:23:39.917                : :Chapter 04
00:28:10.125                : :Chapter 05
00:36:24.833                : :Chapter 06
00:47:31.708                : :Chapter 07
00:53:41.792                : :Chapter 08
00:59:28.542                : :Chapter 09
01:04:56.083                : :Chapter 10
01:12:56.792                : :Chapter 11
01:23:35.542                : :Chapter 12



Скриншоты:
[+] Всего файлов в раздаче - 1:
Il.signor.Diavolo.2019.BDRip.720p.seleZen.mkv6.03 GB

Похожие раздачи по запросу - господин:
2020-10-16 U Господин Дьявол / Il signor Diavolo (2019) BDRip 1080p от селезень | iTunes 11.15 GB ↑ 65 ↓ 37
2020-10-16 U Господин Дьявол / Il signor Diavolo (2019) BDRip от MegaPeer | iTunes 1.46 GB ↑ 119 ↓ 52

Отзывы
Зарегистрируйтесь чтобы добавить комментарий.
Загрузите программу
  uTorrent.exe
Обратная связь
Copyleft ©