↑↓torrent.by
Поиск
Логин: Регистрация
Пароль: Восстановить пароль

С днем смерти / Death of Me (2020) WEB-DLRip от MediaBit | L

Скачать s-dnem-smerti-death-of-me-2020-web-dlrip-ot-mediabit-l.torrent
U Магнитная ссылка Размер: 1.46 GB Раздают: 244 Качают: 50 Добавлен: 2020-10-17 07:08:01
С днем смерти / Death of Me (2020) WEB-DLRip от MediaBit | L

Название: С днем смерти
Оригинальное название: Death of Me
Год выхода: 2020
Жанр: Ужасы, детектив
Режиссер: Даррен Линн Боусман
В ролях: Мэгги Кью, Люк Хемсворт, Александра Эссоу, Майкл С. Нью, Кэт Ингкарат, Келли Б. Джонс, Анхель Ладао, Рим Романн

О фильме: Супруги-американцы Кристин и Нейл проводят отпуск на одном из тайских островов. В день отъезда у них всё идет наперекосяк: сначала они просыпаются грязные в разгромленной комнате и ничего не могут вспомнить, потом чуть не опаздывают на паром, а после выясняется, что пропали их паспорта. А когда пара решает восстановить в памяти события предыдущего дня и просматривает сделанную накануне видеозапись, то видит, как Нейл душит Кристин и хоронит её бездыханное тело. Странный день продолжается.

Страна: США
Студия: Benetone Films, 13 Films, Dobre Films
Продолжительность: 01:34:42
Перевод: Любительский многоголосый | AlphaProject

Файл
Кодек: XviD
Качество: WEB-DL 1080p
Видео: 2001 Кбит/с, 720x384, 23.976 кадр/с
Звук: AC3, 48 Гц, 192 Кбит/сек, 2 ch (L + R) | MVO | AlphaProject

Релиз:


[+] MI
Общее
Полное имя                               : D:ТоррентыDeath.of.Me.2020.1080p.AMZN.WEBRip.DDP5.1.x264-NTGDeath.of.Me.2020.RU.XviD.WEB-DLRip-MediaBit.avi
Формат                                   : AVI
Формат/Информация                        : Audio Video Interleave
Профиль формата                          : OpenDML
Размер файла                             : 1,46 Гбайт
Продолжительность                        : 1 ч. 34 м.
Общий поток                              : 2 202 Кбит/сек
Название фильма                          : Death of Me (2020)
Программа кодирования                    : Lavf58.20.100

Видео
Идентификатор                            : 0
Формат                                   : MPEG-4 Visual
Профиль формата                          : Advanced Simple@L5
Настройки формата                        : BVOP1 / Custom Matrix
Параметр BVOP формата                    : 1
Параметр QPel формата                    : Нет
Параметр GMC формата                     : Без точки перехода
Параметр матрицы формата                 : Выборочная
Идентификатор кодека                     : XVID
Идентификатор кодека/Подсказка           : XviD
Продолжительность                        : 1 ч. 34 м.
Битрейт                                  : 2 001 Кбит/сек
Ширина                                   : 720 пикселей
Высота                                   : 384 пикселя
Соотношение сторон                       : 1,85:1
Частота кадров                           : 23,976 (24000/1001) кадра/сек
Цветовое пространство                    : YUV
Субдискретизация насыщенности            : 4:2:0
Битовая глубина                          : 8 бит
Тип развёртки                            : Прогрессивная
Метод сжатия                             : С потерями
Бит/(Пиксели*Кадры)                      : 0.302
Размер потока                            : 1,32 Гбайт (91%)
Заголовок                                : MediaBit
Библиотека кодирования                   : XviD 67

Аудио
Идентификатор                            : 1
Формат                                   : AC-3
Формат/Информация                        : Audio Coding 3
Коммерческое название                    : Dolby Digital
Идентификатор кодека                     : 2000
Продолжительность                        : 1 ч. 34 м.
Вид битрейта                             : Постоянный
Битрейт                                  : 192 Кбит/сек
Каналы                                   : 2 канала
Channel layout                           : L R
Частота                                  : 48,0 КГц
Частота кадров                           : 31,250 кадров/сек (1536 SPF)
Битовая глубина                          : 16 бит
Метод сжатия                             : С потерями
Размер потока                            : 130 Мбайт (9%)
Выравнивание                             : Соединение по промежуткам
Продолжительность промежутка             : 32  мс. (0,77 видеокадр)
Заголовок                                : MVO [AlphaProject] MediaBit
Service kind                             : Complete Main



Скриншоты:
[+] Всего файлов в раздаче - 1:
Death.of.Me.2020.RU.XviD.WEB-DLRip-MediaBit.avi1.46 GB

Похожие раздачи по запросу - днем:
2020-10-17 U С днем смерти / Death of Me (2020) WEB-DL 1080p от MediaBit | L 6.60 GB ↑ 160 ↓ 41

Отзывы
Зарегистрируйтесь чтобы добавить комментарий.
Загрузите программу
  uTorrent.exe
Обратная связь
Copyleft ©