↑↓torrent.by
Поиск
Логин: Регистрация
Пароль: Восстановить пароль

С днем смерти / Death of Me (2020) WEB-DL 1080p от MediaBit | L

Скачать s-dnem-smerti-death-of-me-2020-web-dl-1080p-ot-mediabit-l.torrent
U Магнитная ссылка Размер: 6.60 GB Раздают: 159 Качают: 41 Добавлен: 2020-10-17 07:08:13
С днем смерти / Death of Me (2020) WEB-DL 1080p от MediaBit | L

Название: С днем смерти
Оригинальное название: Death of Me
Год выхода: 2020
Жанр: Ужасы, детектив
Режиссер: Даррен Линн Боусман
В ролях: Мэгги Кью, Люк Хемсворт, Александра Эссоу, Майкл С. Нью, Кэт Ингкарат, Келли Б. Джонс, Анхель Ладао, Рим Романн

О фильме: Супруги-американцы Кристин и Нейл проводят отпуск на одном из тайских островов. В день отъезда у них всё идет наперекосяк: сначала они просыпаются грязные в разгромленной комнате и ничего не могут вспомнить, потом чуть не опаздывают на паром, а после выясняется, что пропали их паспорта. А когда пара решает восстановить в памяти события предыдущего дня и просматривает сделанную накануне видеозапись, то видит, как Нейл душит Кристин и хоронит её бездыханное тело. Странный день продолжается.

Страна: США
Студия: Benetone Films, 13 Films, Dobre Films
Продолжительность: 01:34:42
Перевод: Любительский многоголосый | AlphaProject

Файл
Кодек: MPEG-4 AVC
Качество: WEB-DL 1080p
Видео: 9148 Кбит/с, 1920x1040, 23.976 кадр/с
Звук:
Аудио #1: AC3, 48 Гц, 192 Кбит/сек, 2 ch (L + R) | MVO | AlphaProject
Аудио #2: AC3, 48 Гц, 640 Кбит/сек, 6 ch (L C R, + L R, LFE) | Английский
Субтитры: Английские

Релиз:


[+] MI
Общее
Уникальный идентификатор                 : 60969925503123306638299386481142191819 (0x2DDE6169FA7A0036B263A285D480D6CB)
Полное имя                               : D:ТоррентыDeath.of.Me.2020.1080p.AMZN.WEBRip.DDP5.1.x264-NTGDeath.of.Me.2020.RU.ENG.x264.WEB-DL-1080p-MediaBit.mkv
Формат                                   : Matroska
Версия формата                           : Version 4
Размер файла                             : 6,60 Гбайт
Продолжительность                        : 1 ч. 34 м.
Общий поток                              : 9 970 Кбит/сек
Название фильма                          : Моя смерть / Death of Me (2020)
Дата кодирования                         : UTC 2020-10-16 08:24:20
Программа кодирования                    : mkvmerge v25.0.0 ('Prog Noir') 64-bit
Библиотека кодирования                   : libebml v1.3.6 + libmatroska v1.4.9

Видео
Идентификатор                            : 1
Формат                                   : AVC
Формат/Информация                        : Advanced Video Codec
Профиль формата                          : High@L4
Настройки формата                        : CABAC / 4 Ref Frames
Параметр CABAC формата                   : Да
Параметр RefFrames формата               : 4 кадра
Идентификатор кодека                     : V_MPEG4/ISO/AVC
Продолжительность                        : 1 ч. 34 м.
Вид битрейта                             : Постоянный
Битрейт                                  : 9 148 Кбит/сек
Номинальный битрейт                      : 10 000 Кбит/сек
Ширина                                   : 1 920 пикселей
Высота                                   : 1 040 пикселей
Соотношение сторон                       : 1,85:1
Режим частоты кадров                     : Постоянный
Частота кадров                           : 23,976 (24000/1001) кадра/сек
Цветовое пространство                    : YUV
Субдискретизация насыщенности            : 4:2:0
Битовая глубина                          : 8 бит
Тип развёртки                            : Прогрессивная
Бит/(Пиксели*Кадры)                      : 0.191
Размер потока                            : 6,04 Гбайт (92%)
Заголовок                                : NTG
Язык                                     : English
Default                                  : Да
Forced                                   : Нет
Цветовой диапазон                        : Limited
Основные цвета                           : BT.709
Характеристики трансфера                 : BT.709
Коэффициенты матрицы                     : BT.709

Аудио #1
Идентификатор                            : 2
Формат                                   : AC-3
Формат/Информация                        : Audio Coding 3
Коммерческое название                    : Dolby Digital
Идентификатор кодека                     : A_AC3
Продолжительность                        : 1 ч. 34 м.
Вид битрейта                             : Постоянный
Битрейт                                  : 192 Кбит/сек
Каналы                                   : 2 канала
Channel layout                           : L R
Частота                                  : 48,0 КГц
Частота кадров                           : 31,250 кадров/сек (1536 SPF)
Метод сжатия                             : С потерями
Размер потока                            : 130 Мбайт (2%)
Заголовок                                : MVO [AlphaProject] MediaBit
Язык                                     : Russian
Service kind                             : Complete Main
Default                                  : Да
Forced                                   : Нет

Аудио #2
Идентификатор                            : 3
Формат                                   : AC-3
Формат/Информация                        : Audio Coding 3
Коммерческое название                    : Dolby Digital
Идентификатор кодека                     : A_AC3
Продолжительность                        : 1 ч. 34 м.
Вид битрейта                             : Постоянный
Битрейт                                  : 640 Кбит/сек
Каналы                                   : 6 каналов
Channel layout                           : L R C LFE Ls Rs
Частота                                  : 48,0 КГц
Частота кадров                           : 31,250 кадров/сек (1536 SPF)
Метод сжатия                             : С потерями
Размер потока                            : 433 Мбайт (6%)
Язык                                     : English
Service kind                             : Complete Main
Default                                  : Нет
Forced                                   : Нет

Текст
Идентификатор                            : 4
Формат                                   : UTF-8
Идентификатор кодека                     : S_TEXT/UTF8
Идентификатор кодека/Информация          : UTF-8 Plain Text
Продолжительность                        : 1 ч. 33 м.
Битрейт                                  : 46 бит/сек
Count of elements                        : 1337
Размер потока                            : 31,7 Кбайт (0%)
Заголовок                                : SDH
Язык                                     : English
Default                                  : Нет
Forced                                   : Нет



Скриншоты:
[+] Всего файлов в раздаче - 1:
Death.of.Me.2020.RU.ENG.x264.WEB-DL-1080p-MediaBit.mkv6.60 GB

Похожие раздачи по запросу - днем:
2020-10-17 U С днем смерти / Death of Me (2020) WEB-DLRip от MediaBit | L 1.46 GB ↑ 243 ↓ 50

Отзывы
Зарегистрируйтесь чтобы добавить комментарий.
Загрузите программу
  uTorrent.exe
Обратная связь
Copyleft ©