↑↓torrent.by
Поиск
Логин: Регистрация
Пароль: Восстановить пароль

Старые кадры [01-20 из 20] (2020) WEBRip от GeneralFilm

Скачать starye-kadry-01-20-iz-2020-webrip-ot-generalfilm.torrent
U Магнитная ссылка Размер: 10.89 GB Раздают: 110 Качают: 173 Добавлен: 2020-10-17 12:28:04
Старые кадры [01-20 из 20] (2020) WEBRip от GeneralFilm

Оригинальное название: Старые кадры
Год выпуска: 2020
Жанр:  Детектив
Выпущено: Россия, ООО «Алекс Медиа»
Режиссер: Евгений Звездаков, Алексей Луканев
В ролях: Мария Шукшина, Борис Щербаков, Дмитрий Астрахан, Борис Галкин, Елена Коренева, Артур Ваха, Иван Агапов, Алексей Фатеев, Анна Алексахина, Юлия Яблонская, Александр Никольский, Франя Файзиева, Самвел Мужикян, Заза Чантурия, Алексей Кирилин, Маргарита Шилова, Мария Романова, Олеся Астапова, Наталия Колоскова

О фильме: Александра Токарева, опытный сотрудник Следственного комитета, из-за дурацкой случайности сорвала важную операцию. Начальство вынуждено ее перевести, и Токареву отправляют руководить только что созданным отделом по расследованию нераскрытых преступлений – ОРНП. Отдел задуман больше ради имиджа, для улучшения которого к работе хотят привлечь отставных полицейских и поручить им заново расследовать преступления, которые не были раскрыты 20-30 лет назад. Александра набирает команду. Бравые пенсионеры не отличаются ни покладистым характером, ни почтением к начальству. Но оказывается, их зря списали – первое же дело заканчивается успехом.

Качество: WEBRip
Видео: XviD build 73, 720x400 (16:9), 25.000 fps, ~ 1300 Kbps (~ 0.180 bit/pixel)
Аудио: 48.0 kHz, MP3, 2/0 ch, 192 kbps
Продолжительность: 20 x ~ 00:52:00
Перевод: Не требуется [Русский]
Cубтитры: нет

Релиз:


[+] MediaInfo
General
Complete name               : D:RazdachiStaraya.Gvardiya.2020.WEBRip.GeneralFilme01.Staraya.Gvardiya.avi
Format                      : AVI
Format/Info                 : Audio Video Interleave
File size                   : 558 MiB
Duration                    : 51 min 25 s
Overall bit rate            : 1 516 kb/s
Writing application         : VirtualDubMod 1.5.10.3 | www.virtualdub-fr.org || (build 2550/release)
Writing library             : VirtualDubMod build 2550/release

Video
ID                          : 0
Format                      : MPEG-4 Visual
Format profile              : Advanced Simple@L5
Format settings             : BVOP1 / Custom Matrix
Format settings, BVOP       : 1
Format settings, QPel       : No
Format settings, GMC        : No warppoints
Format settings, Matrix     : Custom
Codec ID                    : XVID
Codec ID/Hint               : XviD
Duration                    : 51 min 25 s
Bit rate                    : 1 314 kb/s
Width                       : 720 pixels
Height                      : 400 pixels
Display aspect ratio        : 16:9
Frame rate                  : 25.000 FPS
Color space                 : YUV
Chroma subsampling          : 4:2:0
Bit depth                   : 8 bits
Scan type                   : Progressive
Compression mode            : Lossy
Bits/(Pixel*Frame)          : 0.182
Stream size                 : 483 MiB (87%)
Writing library             : XviD 73

Audio
ID                          : 1
Format                      : MPEG Audio
Format version              : Version 1
Format profile              : Layer 3
Codec ID                    : 55
Codec ID/Hint               : MP3
Duration                    : 51 min 25 s
Bit rate mode               : Constant
Bit rate                    : 192 kb/s
Channel(s)                  : 2 channels
Sampling rate               : 48.0 kHz
Frame rate                  : 41.667 FPS (1152 SPF)
Compression mode            : Lossy
Stream size                 : 70.6 MiB (13%)
Alignment                   : Aligned on interleaves
Interleave, duration        : 40  ms (1.00 video frame)
Interleave, preload duratio : 504  ms
Writing library             : LAME3.99r
Encoding settings           : -m s -V 4 -q 2 -lowpass 18.6 -b 192



Скриншоты:
[+] Всего файлов в раздаче - 20:
e01.Starye.Kadry.avi557.53 MB
e02.Starye.Kadry.avi557.57 MB
e03.Starye.Kadry.avi557.58 MB
e04.Starye.Kadry.avi557.67 MB
e05.Starye.Kadry.avi557.54 MB
e06.Starye.Kadry.avi557.44 MB
e07.Starye.Kadry.avi557.66 MB
e08.Starye.Kadry.avi557.43 MB
e09.Starye.Kadry.avi557.43 MB
e10.Starye.Kadry.avi557.38 MB
e11.Starye.Kadry.avi557.58 MB
e12.Starye.Kadry.avi557.28 MB
e13.Starye.Kadry.avi557.43 MB
e14.Starye.Kadry.avi557.41 MB
e15.Starye.Kadry.avi557.34 MB
e16.Starye.Kadry.avi557.46 MB
e17.Starye.Kadry.avi557.32 MB
e18.Starye.Kadry.avi557.34 MB
e19.Starye.Kadry.avi557.30 MB
e20.Starye.Kadry.avi557.38 MB

Показать еще раздачи по запросу старые:
2020-10-18 U Старые кадры [01-20 из 20] (2020) WEBRip от Files-x 13.03 GB ↑ 31 ↓ 34
2020-10-17 U Старые кадры [01-20 из 20] (2019) SATRip-AVC 12.07 GB ↑ 80 ↓ 98
2020-10-17 U Старые кадры [01-20 из 20] (2020) SATRip 12.00 GB ↑ 65 ↓ 87
2020-10-12 U Старые кадры [01-12 из 20] (2020) SATRip 7.31 GB ↑ 254 ↓ 141
2020-10-10 U Старые кадры [01-10 из 20] (2020) SATRip 6.14 GB ↑ 124 ↓ 170
2020-10-09 U Старые кадры [01-08 из 20] (2020) SATRip 4.97 GB ↑ 69 ↓ 82
2020-10-08 U Старые кадры [01-06 из 20] (2020) SATRip 3.80 GB ↑ 90 ↓ 102

Отзывы
Зарегистрируйтесь чтобы добавить комментарий.
Загрузите программу
  uTorrent.exe
Обратная связь
Copyleft ©