↑↓torrent.by
Поиск
Логин: Регистрация
Пароль: Восстановить пароль

Гусар [01-10] (2020) WEBRip от GeneralFilm

Скачать gusar-01-10-2020-webrip-ot-generalfilm.torrent
U Магнитная ссылка Размер: 2.72 GB Раздают: 60 Качают: 97 Добавлен: 2020-10-17 12:28:52
Гусар [01-10] (2020) WEBRip от GeneralFilm

Оригинальное название: Гусар
Год выпуска: 2020
Жанр:  Комедия, приключения
Выпущено: Россия, Comedy Club Production по заказу телеканала ТНТ
Режиссер: Заур Болотаев, Рустам Мосафир
В ролях: Гарик Харламов, Павел Рассомахин, Екатерина Ковальчук, Екатерина Радченко, Сергей Белов, Валерия Кристиансен, Светлана Фролова

О фильме: 1812 год. Поручик Григорий Рыльский должен доставить Кутузову секретные документы. Как только они попадут к полководцу, русская армия начнет наступление. Но по пути в штаб поручик заглядывается на сельскую девицу и вдруг… оказывается в будущем – в квартире молодого ученого Дмитрия Журавлева и его жены Кати, которые находятся на грани развода. При попытке вернуть Гусара обратно в прошлое, машина времени ломается, и поручик вынужден оставаться в 21 веке, пока ученый не починит машину.

Качество: WEBRip
Видео: XviD build 73, 720x400 (16:9), 25.000 fps, ~ 1520 Kbps (~ 0.212 bit/pixel)
Аудио: 48.0 kHz, MP3, 2/0 ch, 192 kbps
Продолжительность: 10 x ~ 00:25:00
Перевод: Не требуется [Русский]
Cубтитры: нет

Релиз:
[+] MediaInfo
General
Complete name               : D:RazdachiGusar.2020.WEBRip.GeneralFilms01.e01.Gusar.avi
Format                      : AVI
Format/Info                 : Audio Video Interleave
File size                   : 279 MiB
Duration                    : 22 min 38 s
Overall bit rate            : 1 723 kb/s
Writing application         : VirtualDubMod 1.5.10.3 | www.virtualdub-fr.org || (build 2550/release)
Writing library             : VirtualDubMod build 2550/release

Video
ID                          : 0
Format                      : MPEG-4 Visual
Format profile              : Advanced Simple@L5
Format settings             : BVOP1 / Custom Matrix
Format settings, BVOP       : 1
Format settings, QPel       : No
Format settings, GMC        : No warppoints
Format settings, Matrix     : Custom
Codec ID                    : XVID
Codec ID/Hint               : XviD
Duration                    : 22 min 38 s
Bit rate                    : 1 521 kb/s
Width                       : 720 pixels
Height                      : 400 pixels
Display aspect ratio        : 16:9
Frame rate                  : 25.000 FPS
Color space                 : YUV
Chroma subsampling          : 4:2:0
Bit depth                   : 8 bits
Scan type                   : Progressive
Compression mode            : Lossy
Bits/(Pixel*Frame)          : 0.211
Stream size                 : 246 MiB (88%)
Writing library             : XviD 73

Audio
ID                          : 1
Format                      : MPEG Audio
Format version              : Version 1
Format profile              : Layer 3
Codec ID                    : 55
Codec ID/Hint               : MP3
Duration                    : 22 min 38 s
Bit rate mode               : Constant
Bit rate                    : 192 kb/s
Channel(s)                  : 2 channels
Sampling rate               : 48.0 kHz
Frame rate                  : 41.667 FPS (1152 SPF)
Compression mode            : Lossy
Stream size                 : 31.1 MiB (11%)
Alignment                   : Aligned on interleaves
Interleave, duration        : 40  ms (1.00 video frame)
Interleave, preload duratio : 504  ms
Writing library             : LAME3.99r
Encoding settings           : -m s -V 4 -q 2 -lowpass 18.6 -b 192



Скриншоты:
[+] Всего файлов в раздаче - 10:
s01.e01.Gusar.avi278.88 MB
s01.e02.Gusar.avi278.71 MB
s01.e03.Gusar.avi279.02 MB
s01.e04.Gusar.avi279.02 MB
s01.e05.Gusar.avi278.89 MB
s01.e06.Gusar.avi279.09 MB
s01.e07.Gusar.avi279.07 MB
s01.e08.Gusar.avi279.05 MB
s01.e09.Gusar.avi278.82 MB
s01.e10.Gusar.avi278.93 MB

Показать еще раздачи по запросу гусар:
Сегодня U Гусар [01-16 из 18] (2020) WEBRip 1080p 12.02 GB ↑ 46 ↓ 151
Сегодня U Гусар [01-16] (2020) WEBRip 720p от Files-x 8.17 GB ↑ 30 ↓ 120
Вчера U Гусар [01-16 из 18] (2020) SATRip 4.80 GB ↑ 366 ↓ 967
Вчера U Гусар [01-15 из 18] (2020) HDTV 1080i от ExKinoRay 14.52 GB ↑ 41 ↓ 307
Вчера U Гусар [01-15 из 18] (2020) WEBRip-AVC от Files-x 4.41 GB ↑ 45 ↓ 110
Вчера U Гусар [01-15] (2020) WEBRip 720p от Files-x 7.68 GB ↑ 74 ↓ 393
2020-10-26 U Гусар [01-15 из 18] (2020) SATRip 4.49 GB ↑ 348 ↓ 392

Отзывы
Зарегистрируйтесь чтобы добавить комментарий.
Загрузите программу
  uTorrent.exe
Обратная связь
Copyleft ©