↑↓torrent.by
Поиск
Логин: Регистрация
Пароль: Восстановить пароль

Почта Тинто Брасса / Fermo posta Tinto Brass (1995) BDRip 1080p | P2

Скачать pochta-tinto-brassa-fermo-posta-brass-1995-bdrip-1080p-p2.torrent
U Магнитная ссылка Размер: 8.76 GB Раздают: 79 Качают: 53 Добавлен: 2020-10-17 12:29:54
Почта Тинто Брасса / Fermo posta Tinto Brass (1995) BDRip 1080p | P2

Название: Почта Тинто Брасса
Оригинальное название: Fermo posta Tinto Brass
Год выхода: 1995
Жанр: Эротика, мелодрама
Режиссер: Тинто Брасс
В ролях: Чинция Роккафорте, Эрика Саффо Савастани, Карла Соларо, Алессандра Антонелли, Сара Косми, Кристина Ринальди, Гайя Зукки, Габриэлла Барбути, Лаура Гуалтьери, Паоло Ланца, Лука Флауто, Тинто Брасс

О фильме:
Тинто Брасс, вдохновленный многочисленными письмами, фотографиями и видеокассетами от своих поклонниц его особого жанра эротического кино, создает фильм, в котором воплощены грезы, признания, события, воспоминания и желания обыкновенных женщин. Мы попадаем в мир женских сексуальных фантазий снятых в фирменном ракурсе маэстро.

Страна: Италия
Студия: California Film, Produttori Associati
Продолжительность: 01:33:23
Перевод: Профессиональный двухголосый

Файл
Кодек: x.264
Качество: BDRip 1080p
Видео: MPEG-4 AVC, 13.0 Mбит/с, 1920x1038, 23.976 кадр/с
Аудио #1: Русский (АС3, 2 ch, 192 Кбит/с, 48.0 KHz) Профессиональный (двухголосый, закадровый)
Аудио #2: Итальянский (АС3, 2 ch, 192 Кбит/с, 48.0 KHz)
Субтитры: Русские (Full), английские


[+] MediaInfo
Источник: P.O.Box.Tinto.Brass.1995.1080p.BluRay.x264-CiNEPHiLiA
General
Unique ID                      : 192757550799577062303819089022803706500 (0x9103C10030E780FDA3BB1936E6BF0284)
Complete name                  : P.O.Box.Tinto.Brass.1995.BDRip.x264.mkv
Format                         : Matroska
Format version                 : Version 4
File size                      : 8.76 GiB
Duration                       : 1 h 33 min
Overall bit rate               : 13.4 Mb/s
Encoded date                   : UTC 2020-10-16 16:21:55
Writing application            : mkvmerge v7.1.0 ('Good Love') 64bit built on Jul 27 2014 13:06:55
Writing library                : libebml v1.3.0 + libmatroska v1.4.1

Video
ID                             : 1
Format                         : AVC
Format/Info                    : Advanced Video Codec
Format profile                 : High@L4.1
Format settings                : CABAC / 4 Ref Frames
Format settings, CABAC         : Yes
Format settings, Reference fra : 4 frames
Codec ID                       : V_MPEG4/ISO/AVC
Duration                       : 1 h 33 min
Bit rate                       : 13.0 Mb/s
Width                          : 1 920 pixels
Height                         : 1 038 pixels
Display aspect ratio           : 1.85:1
Frame rate mode                : Constant
Frame rate                     : 23.976 (24000/1001) FPS
Color space                    : YUV
Chroma subsampling             : 4:2:0
Bit depth                      : 8 bits
Scan type                      : Progressive
Bits/(Pixel*Frame)             : 0.273
Stream size                    : 8.51 GiB (97%)
Writing library                : x264 core 161 r3018 db0d417
Encoding settings              : cabac=1 / ref=4 / deblock=1:-3:-3 / analyse=0x3:0x133 / me=umh / subme=9 / psy=1 / psy_rd=1.00:0.00 / mixed_ref=1 / me_range=24 / chroma_me=1 / trellis=2 / 8x8dct=1 / cqm=0 / deadzone=21,11 / fast_pskip=0 / chroma_qp_offset=-2 / threads=9 / lookahead_threads=1 / sliced_threads=0 / nr=0 / decimate=0 / interlaced=0 / bluray_compat=0 / constrained_intra=0 / bframes=3 / b_pyramid=2 / b_adapt=2 / b_bias=0 / direct=3 / weightb=1 / open_gop=0 / weightp=2 / keyint=240 / keyint_min=23 / scenecut=40 / intra_refresh=0 / rc_lookahead=60 / rc=crf / mbtree=0 / crf=22.5 / qcomp=0.60 / qpmin=0 / qpmax=69 / qpstep=4 / vbv_maxrate=62500 / vbv_bufsize=78125 / crf_max=0.0 / nal_hrd=none / filler=0 / ip_ratio=1.40 / pb_ratio=1.30 / aq=3:0.70
Language                       : English
Default                        : Yes
Forced                         : No

Audio #1
ID                             : 2
Format                         : AC-3
Format/Info                    : Audio Coding 3
Commercial name                : Dolby Digital
Codec ID                       : A_AC3
Duration                       : 1 h 33 min
Bit rate mode                  : Constant
Bit rate                       : 192 kb/s
Channel(s)                     : 2 channels
Channel layout                 : L R
Sampling rate                  : 48.0 kHz
Frame rate                     : 31.250 FPS (1536 SPF)
Compression mode               : Lossy
Stream size                    : 128 MiB (1%)
Title                          : DVO
Language                       : Russian
Service kind                   : Complete Main
Default                        : Yes
Forced                         : No

Audio #2
ID                             : 3
Format                         : AC-3
Format/Info                    : Audio Coding 3
Commercial name                : Dolby Digital
Codec ID                       : A_AC3
Duration                       : 1 h 33 min
Bit rate mode                  : Constant
Bit rate                       : 192 kb/s
Channel(s)                     : 2 channels
Channel layout                 : L R
Sampling rate                  : 48.0 kHz
Frame rate                     : 31.250 FPS (1536 SPF)
Compression mode               : Lossy
Stream size                    : 128 MiB (1%)
Language                       : Italian
Service kind                   : Complete Main
Default                        : No
Forced                         : No

Text #1
ID                             : 4
Format                         : UTF-8
Codec ID                       : S_TEXT/UTF8
Codec ID/Info                  : UTF-8 Plain Text
Duration                       : 1 h 30 min
Bit rate                       : 70 b/s
Count of elements              : 672
Stream size                    : 47.1 KiB (0%)
Language                       : Russian
Default                        : No
Forced                         : No

Text #2
ID                             : 5
Format                         : UTF-8
Codec ID                       : S_TEXT/UTF8
Codec ID/Info                  : UTF-8 Plain Text
Duration                       : 1 h 30 min
Bit rate                       : 39 b/s
Count of elements              : 779
Stream size                    : 26.6 KiB (0%)
Language                       : English
Default                        : No
Forced                         : No

Text #3
ID                             : 6
Format                         : PGS
Muxing mode                    : zlib
Codec ID                       : S_HDMV/PGS
Codec ID/Info                  : Picture based subtitle format used on BDs/HD-DVDs
Duration                       : 1 h 31 min
Bit rate                       : 4 511 b/s
Count of elements              : 1559
Stream size                    : 2.94 MiB (0%)
Language                       : English
Default                        : No
Forced                         : No

Menu
00:00:00.000                   : :Chapter 01
00:06:24.092                   : :Chapter 02
00:22:02.488                   : :Chapter 03
00:29:47.703                   : :Chapter 04
00:44:57.069                   : :Chapter 05
00:52:45.996                   : :Chapter 06
01:08:29.355                   : :Chapter 07
01:24:48.125                   : :Chapter 08
01:31:25.855                   : :Chapter 09



Скриншоты:
[+] Всего файлов в раздаче - 1:
P.O.Box.Tinto.Brass.1995.BDRip.x264.mkv8.76 GB

Отзывы
Зарегистрируйтесь чтобы добавить комментарий.
Загрузите программу
  uTorrent.exe
Обратная связь
Copyleft ©