↑↓torrent.by
Поиск
Логин: Регистрация
Пароль: Восстановить пароль

Пули справедливости / Bullets of Justice (2019) WEB-DL 720p | L1

Скачать puli-spravedlivosti-bullets-of-justice-2019-web-dl-720p-l1.torrent
U Магнитная ссылка Размер: 3.74 GB Раздают: 89 Качают: 33 Добавлен: 2020-10-17 12:30:00
Пули справедливости / Bullets of Justice (2019) WEB-DL 720p | L1

Название: Пули справедливости
Оригинальное название: Bullets of Justice
Год выхода: 2019
Жанр: боевик, ужасы, комедия, фантастика
Режиссер: Валерий Милев
В ролях: Тимур Турисбеков, Дэнни Трехо, Доротея Толева, Яна Маринова, Семир Алкади, Нели Андонова, Динко Ангелов, Гергана Арольска, Эстер Чардаклиева, Светлио Чернев

О фильме:
Правительство США во время Третьей мировой войны запустило тайный проект под кодовым названием «Армейский бекон». Его целью было создание суперсолдат путем скрещивания людей со свиньями. 25 лет спустя свинорылы достигают вершины пищевой цепочки, начиная поедать и разводить людей на фермах. Бывший охотник за головами Роб Джастис работает на последний фронт сопротивления человечества - группу повстанцев, прячущихся глубоко под землей в секретном ядерном бункере. Его миссия - узнать, как свинорылы пришли к власти и уничтожить их.
ПРИСУТСТВУЕТ НЕНОРМАТИВНАЯ ЛЕКСИКА

Страна: Казахстан, Болгария
Студия: Black Mandala
Продолжительность: 01:19:23
Перевод: Любительский одноголосый, закадровый [datynet]

Файл
Кодек: H.264
Качество: WEB-DL 720p
Видео: AVC, 1280x544 (2.35:1), 24 fps ~ 6000 Kbps
Звук:
AC3, 48 KHz, 2 ch ~ 256 Kb/s (русский)
E-AC3, 48 KHz, 6 ch ~ 640 Kb/s (английский)
Субтитры: английские

Семпл


[+] MI:

Общее
Уникальный идентификатор : 240545541797601246504273548018487363760 (0xB4F762DD96DFB88CAA41931F329388B0)
Полное имя : J:wotBullets.of.Justice.2019.WEB-DL.720p.mkv
Формат : Matroska
Версия формата : Version 4
Размер файла : 3,74 Гбайт
Продолжительность : 1 ч. 19 м.
Общий поток : 6 750 Кбит/сек
Дата кодирования : UTC 2020-10-16 18:38:19
Программа кодирования : mkvmerge v7.7.0 ('Six Voices') 32bit built on Feb 28 2015 23:23:00
Библиотека кодирования : libebml v1.3.1 + libmatroska v1.4.2

Видео
Идентификатор : 1
Формат : AVC
Формат/Информация : Advanced Video Codec
Профиль формата : High@L3.1
Настройки формата : CABAC / 4 Ref Frames
Параметр CABAC формата : Да
Параметр RefFrames формата : 4 кадра
Идентификатор кодека : V_MPEG4/ISO/AVC
Продолжительность : 1 ч. 19 м.
Вид битрейта : Постоянный
Битрейт : 6 000 Кбит/сек
Ширина : 1 280 пикселей
Высота : 544 пикселя
Соотношение сторон : 2,35:1
Соотношение сторон в оригинале : 2,35:1
Режим частоты кадров : Постоянный
Частота кадров : 24,000 кадра/сек
Цветовое пространство : YUV
Субдискретизация насыщенности : 4:2:0
Битовая глубина : 8 бит
Тип развёртки : Прогрессивная
Бит/(Пиксели*Кадры) : 0.359
Размер потока : 3,24 Гбайт (87%)
Язык : English
Default : Да
Forced : Нет
Цветовой диапазон : Limited
Основные цвета : BT.709
Характеристики трансфера : BT.709
Коэффициенты матрицы : BT.709

Аудио #1
Идентификатор : 2
Формат : AC-3
Формат/Информация : Audio Coding 3
Коммерческое название : Dolby Digital
Идентификатор кодека : A_AC3
Продолжительность : 1 ч. 19 м.
Вид битрейта : Постоянный
Битрейт : 256 Кбит/сек
Каналы : 2 канала
Channel layout : L R
Частота : 48,0 КГц
Частота кадров : 31,250 кадров/сек (1536 SPF)
Метод сжатия : С потерями
Размер потока : 145 Мбайт (4%)
Заголовок : datynet
Язык : Russian
Service kind : Complete Main
Default : Да
Forced : Нет

Аудио #2
Идентификатор : 3
Формат : E-AC-3
Формат/Информация : Enhanced AC-3
Коммерческое название : Dolby Digital Plus
Идентификатор кодека : A_EAC3
Продолжительность : 1 ч. 19 м.
Вид битрейта : Постоянный
Битрейт : 640 Кбит/сек
Каналы : 6 каналов
Channel layout : L R C LFE Ls Rs
Частота : 48,0 КГц
Частота кадров : 31,250 кадров/сек (1536 SPF)
Метод сжатия : С потерями
Размер потока : 363 Мбайт (9%)
Язык : English
Service kind : Complete Main
Default : Нет
Forced : Нет

Текст
Идентификатор : 4
Формат : UTF-8
Идентификатор кодека : S_TEXT/UTF8
Идентификатор кодека/Информация : UTF-8 Plain Text
Продолжительность : 1 ч. 19 м.
Битрейт : 26 бит/сек
Count of elements : 632
Размер потока : 15,6 Кбайт (0%)
Заголовок : SDH
Язык : English
Default : Нет
Forced : Нет



Скриншоты:
[+] Всего файлов в раздаче - 1:
Bullets.of.Justice.2019.WEB-DL.720p.mkv3.74 GB

Похожие раздачи по запросу - пули:
2020-10-19 U Пули справедливости / Bullets of Justice (2019) WEB-DLRip-AVC от SuperMin | L1 1.42 GB ↑ 66 ↓ 19

Отзывы
Зарегистрируйтесь чтобы добавить комментарий.
Загрузите программу
  uTorrent.exe
Обратная связь
Copyleft ©