↑↓torrent.by
Поиск
Логин: Регистрация
Пароль: Восстановить пароль

Мой любимый враг / Шаг навстречу [01-04 из 04] (2020) WEBRip от Files-x

Скачать moy-lyubimyy-vrag-shag-navstrechu-01-04-iz-2020-webrip-ot-files-x.torrent
U Магнитная ссылка Размер: 2.31 GB Раздают: 171 Качают: 79 Добавлен: 2020-10-17 18:38:53
Мой любимый враг / Шаг навстречу [01-04 из 04] (2020) WEBRip от Files-x

Оригинальное название: Мой любимый враг (Шаг навстречу)
Год выхода: 2020
Жанр: Мелодрама
Режиссер: Антон Азаров
В ролях: Анна Васильева, Роман Полянский, Марк Дробот, Фатима Горбенко, Сергей Калантай, Олеся Островская, Ева Шевченко-Головко

О фильме:
Кира и Марк влюблённые студенты. Отец девушки - мэр города. Он не уверен, что может доверить нищему студенту свою единственную дочь, поэтому Марк решает уехать из города и доказать, что достоин Киры. Она воспринимает разлуку как предательство любимого и уезжает за границу строить карьеру...

Страна: Украина
Студия: StarLightMedia для канала СТБ
Продолжительность: 4 х 00:45:05
Перевод: Не требуется

Файл
Кодек: XviD
Качество: WEBRip
Видео: XviD, ~ 1619 Кбит/с, 720x400, 25 кадр/с
Звук: AC3, 2 ch, 192 Кбит/с

Релиз:
[+] MediaInfo

General
Complete name                    : C:01.Мой любимый враг (Шаг навстречу).(2020).WEBRip.by.Nicodem.Files-x.avi
Format                           : AVI
Format/Info                      : Audio Video Interleave
File size                        : 590 MiB
Duration                         : 45mn 18s
Overall bit rate                 : 1 821 Kbps
Writing application              : VirtualDubMod 1.5.10.3 | www.virtualdub-fr.org || (build 2550/release)
Writing library                  : VirtualDubMod build 2550/release

Video
ID                               : 0
Format                           : MPEG-4 Visual
Format profile                   : Advanced Simple@L5
Format settings, BVOP            : 1
Format settings, QPel            : No
Format settings, GMC             : No warppoints
Format settings, Matrix          : Custom
Codec ID                         : XVID
Codec ID/Hint                    : XviD
Duration                         : 45mn 18s
Bit rate                         : 1 619 Kbps
Width                            : 720 pixels
Height                           : 400 pixels
Display aspect ratio             : 16:9
Frame rate                       : 25.000 fps
Color space                      : YUV
Chroma subsampling               : 4:2:0
Bit depth                        : 8 bits
Scan type                        : Progressive
Compression mode                 : Lossy
Bits/(Pixel*Frame)               : 0.225
Stream size                      : 525 MiB (89%)
Writing library                  : XviD 73

Audio
ID                               : 1
Format                           : AC-3
Format/Info                      : Audio Coding 3
Mode extension                   : CM (complete main)
Codec ID                         : 2000
Duration                         : 45mn 18s
Bit rate mode                    : Constant
Bit rate                         : 192 Kbps
Channel(s)                       : 2 channels
Channel positions                : Front: L R
Sampling rate                    : 48.0 KHz
Bit depth                        : 16 bits
Compression mode                 : Lossy
Stream size                      : 62.2 MiB (11%)
Alignment                        : Split accross interleaves
Interleave, duration             : 40 ms (1.00 video frame)
Interleave, preload duration     : 500 ms



Скриншоты:
[+] Всего файлов в раздаче - 4:
02.Мой любимый враг (Шаг навстречу).(2020).WEBRip.by.Nicodem.Files-x.avi580.18 MB
01.Мой любимый враг (Шаг навстречу).(2020).WEBRip.by.Nicodem.Files-x.avi590.11 MB
03.Мой любимый враг (Шаг навстречу).(2020).WEBRip.by.Nicodem.Files-x.avi590.20 MB
04.Мой любимый враг (Шаг навстречу).(2020).WEBRip.by.Nicodem.Files-x.avi600.21 MB

Похожие раздачи по запросу - любимый:
2020-06-01 U Танкист / Любимый город [01-04 из 04] (2016) WEB-DLRip от Generalfilm | КПК 669.46 MB ↑ 36 ↓ 10
2020-05-09 U Танкист / Любимый город [01-04 из 04] (2016) WEB-DL 1080p от ExKinoRay 6.59 GB ↑ 112 ↓ 65

Отзывы
Зарегистрируйтесь чтобы добавить комментарий.
Загрузите программу
  uTorrent.exe
Обратная связь
Copyleft ©