↑↓torrent.by
Поиск
Логин: Регистрация
Пароль: Восстановить пароль

Грейхаунд / Greyhound (2020) WEB-DL 1080p от селезень | D, P

Скачать greyhaund-greyhound-2020-web-dl-1080p-ot-selezen-d-p.torrent
U Магнитная ссылка Размер: 8.13 GB Раздают: 131 Качают: 121 Добавлен: 2020-10-17 18:39:01
Грейхаунд / Greyhound (2020) WEB-DL 1080p от селезень | D, P

Название: Грейхаунд
Оригинальное название: Greyhound
Год выхода: 2020
Жанр: Военный, боевик, история, биография
Режиссер: Аарон Шнайдер
В ролях: Том Хэнкс, Стивен Грэм, Элизабет Шу, Майкл Бенц, Роб Морган, Дэвид Мальдонадо, Джими Стэнтон, Мэтт Хелм, Том Бриттни, Мануэль Рульфо

О фильме: В 1942 году офицера морского флота Эрнста Краузе назначают капитаном эсминца "Грейхаунд". Приняв командование, ему необходимо провести конвой из кораблей через воды Северной Атлантики, переполненные немецкими подводными лодками. Но чтобы уйти от преследования врага и сохранить экипаж, ему нужно проявить умение и небывалые тактические навыки.

Страна: Китай, Канада, США
Студия: Bron Studios, Columbia Pictures Corporation, Creative Artists Agency (CAA), Creative Wealth Media Finance, Playtone
Продолжительность: 01:31:42
Перевод(ы):
#1: Дублированный
#2: Профессиональный многоголосый | HDRezka Studio

Качество: WEB-DL 1080p
Видео: MPEG-4 AVC, 1920x802, 10.1 Mbit/s, 23.976 fps
Аудио #01: 48 kHz, E-AC3+Atmos, 5.1, 768 Kbps | Дублированный | RUS |
Аудио #02: 48 kHz, AC3, 5.1, 640 Kbps | Дублированный | RUS |
Аудио #03: 48 kHz, AC3, 5.1, 448 Kbps | Профессиональный многоголосый | RUS |
Аудио #04: 48 kHz, E-AC3+Atmos, 5.1, 768 Kbps | Оригинал | ENG |
Субтитры: Русские (2 x Forced, Full), украинские (Full), английские

*Без рекламы.

Релиз:


[+] MI
General
Unique ID                   : 309725839735079313957020626278411440406 (0xE90306E4DC2BC9292070B49027349116)
Complete name               : D:Video111Greyhound.2020.D.MVO.WEB-DL.1080p.seleZen.mkv
Format                      : Matroska
Format version              : Version 4
File size                   : 8.13 GiB
Duration                    : 1 h 31 min
Overall bit rate            : 12.7 Mb/s
Movie name                  : Greyhound 2020 from селезень
Encoded date                : UTC 2020-10-17 12:42:40
Writing application         : mkvmerge v40.0.0 ('Old Town Road + Pony') 64-bit
Writing library             : libebml v1.3.9 + libmatroska v1.5.2

Video
ID                          : 1
Format                      : AVC
Format/Info                 : Advanced Video Codec
Format profile              : High@L4
Format settings             : CABAC / 5 Ref Frames
Format settings, CABAC      : Yes
Format settings, Reference  : 5 frames
Codec ID                    : V_MPEG4/ISO/AVC
Duration                    : 1 h 31 min
Bit rate                    : 10.1 Mb/s
Width                       : 1 920 pixels
Height                      : 802 pixels
Display aspect ratio        : 2.40:1
Frame rate mode             : Constant
Frame rate                  : 23.976 (24000/1001) FPS
Color space                 : YUV
Chroma subsampling          : 4:2:0
Bit depth                   : 8 bits
Scan type                   : Progressive
Bits/(Pixel*Frame)          : 0.273
Stream size                 : 6.45 GiB (79%)
Language                    : Russian
Default                     : Yes
Forced                      : No
Color range                 : Limited
Color primaries             : BT.709
Transfer characteristics    : BT.709
Matrix coefficients         : BT.709

Audio #1
ID                          : 2
Format                      : E-AC-3 JOC
Format/Info                 : Enhanced AC-3 with Joint Object Coding
Commercial name             : Dolby Digital Plus with Dolby Atmos
Codec ID                    : A_EAC3
Duration                    : 1 h 31 min
Bit rate mode               : Constant
Bit rate                    : 768 kb/s
Channel(s)                  : 6 channels
Channel layout              : L R C LFE Ls Rs
Sampling rate               : 48.0 kHz
Frame rate                  : 31.250 FPS (1536 SPF)
Compression mode            : Lossy
Stream size                 : 504 MiB (6%)
Title                       : Dub
Language                    : Russian
Service kind                : Complete Main
Default                     : Yes
Forced                      : Yes
Complexity index            : 16
Number of dynamic objects   : 15
Bed channel count           : 1 channel
Bed channel configuration   : LFE

Audio #2
ID                          : 3
Format                      : AC-3
Format/Info                 : Audio Coding 3
Commercial name             : Dolby Digital
Codec ID                    : A_AC3
Duration                    : 1 h 31 min
Bit rate mode               : Constant
Bit rate                    : 640 kb/s
Channel(s)                  : 6 channels
Channel layout              : L R C LFE Ls Rs
Sampling rate               : 48.0 kHz
Frame rate                  : 31.250 FPS (1536 SPF)
Compression mode            : Lossy
Stream size                 : 420 MiB (5%)
Title                       : Dub
Language                    : Russian
Service kind                : Complete Main
Default                     : No
Forced                      : No

Audio #3
ID                          : 4
Format                      : AC-3
Format/Info                 : Audio Coding 3
Commercial name             : Dolby Digital
Codec ID                    : A_AC3
Duration                    : 1 h 31 min
Bit rate mode               : Constant
Bit rate                    : 448 kb/s
Channel(s)                  : 6 channels
Channel layout              : L R C LFE Ls Rs
Sampling rate               : 48.0 kHz
Frame rate                  : 31.250 FPS (1536 SPF)
Compression mode            : Lossy
Stream size                 : 294 MiB (4%)
Title                       : MVO [HDRezka Studio]
Language                    : Russian
Service kind                : Complete Main
Default                     : No
Forced                      : No

Audio #4
ID                          : 5
Format                      : E-AC-3 JOC
Format/Info                 : Enhanced AC-3 with Joint Object Coding
Commercial name             : Dolby Digital Plus with Dolby Atmos
Codec ID                    : A_EAC3
Duration                    : 1 h 31 min
Bit rate mode               : Constant
Bit rate                    : 768 kb/s
Channel(s)                  : 6 channels
Channel layout              : L R C LFE Ls Rs
Sampling rate               : 48.0 kHz
Frame rate                  : 31.250 FPS (1536 SPF)
Compression mode            : Lossy
Stream size                 : 504 MiB (6%)
Title                       : Original
Language                    : English
Service kind                : Complete Main
Default                     : No
Forced                      : No
Complexity index            : 16
Number of dynamic objects   : 15
Bed channel count           : 1 channel
Bed channel configuration   : LFE

Text #1
ID                          : 6
Format                      : UTF-8
Codec ID                    : S_TEXT/UTF8
Codec ID/Info               : UTF-8 Plain Text
Duration                    : 1 h 30 min
Bit rate                    : 6 b/s
Count of elements           : 77
Stream size                 : 4.39 KiB (0%)
Title                       : Forced v.1
Language                    : Russian
Default                     : Yes
Forced                      : Yes

Text #2
ID                          : 7
Format                      : UTF-8
Codec ID                    : S_TEXT/UTF8
Codec ID/Info               : UTF-8 Plain Text
Duration                    : 1 h 29 min
Bit rate                    : 4 b/s
Count of elements           : 61
Stream size                 : 3.26 KiB (0%)
Title                       : Forced v.2
Language                    : Russian
Default                     : No
Forced                      : No

Text #3
ID                          : 8
Format                      : UTF-8
Codec ID                    : S_TEXT/UTF8
Codec ID/Info               : UTF-8 Plain Text
Duration                    : 1 h 30 min
Bit rate                    : 94 b/s
Count of elements           : 1095
Stream size                 : 62.9 KiB (0%)
Title                       : Full
Language                    : Russian
Default                     : No
Forced                      : No

Text #4
ID                          : 9
Format                      : UTF-8
Codec ID                    : S_TEXT/UTF8
Codec ID/Info               : UTF-8 Plain Text
Duration                    : 1 h 30 min
Bit rate                    : 89 b/s
Count of elements           : 1095
Stream size                 : 59.6 KiB (0%)
Title                       : Full
Language                    : Ukrainian
Default                     : No
Forced                      : No

Text #5
ID                          : 10
Format                      : UTF-8
Codec ID                    : S_TEXT/UTF8
Codec ID/Info               : UTF-8 Plain Text
Duration                    : 1 h 20 min
Bit rate                    : 66 b/s
Count of elements           : 1033
Stream size                 : 38.8 KiB (0%)
Title                       : Full
Language                    : English
Default                     : No
Forced                      : No

Text #6
ID                          : 11
Format                      : UTF-8
Codec ID                    : S_TEXT/UTF8
Codec ID/Info               : UTF-8 Plain Text
Duration                    : 1 h 20 min
Bit rate                    : 72 b/s
Count of elements           : 1105
Stream size                 : 42.3 KiB (0%)
Title                       : SDH
Language                    : English
Default                     : No
Forced                      : No



Скриншоты:
[+] Всего файлов в раздаче - 1:
Greyhound.2020.D.MVO.WEB-DL.1080p.seleZen.mkv8.13 GB

Показать еще раздачи по запросу грейхаунд:
2020-10-18 U Грейхаунд / Greyhound (2020) UHD WEB-DL-HEVC 2160p от селезень | HDR | D, P 16.99 GB ↑ 60 ↓ 28
2020-10-17 U Грейхаунд / Greyhound (2020) WEB-DL 1080p | D 7.43 GB ↑ 96 ↓ 53
2020-10-17 U Грейхаунд / Greyhound (2020) WEB-DLRip от MegaPeer | D 1.46 GB ↑ 221 ↓ 129
2020-07-20 U Грейхаунд / Greyhound (2020) WEB-DLRip 720p от k.e.n & MegaPeer | P, L 3.86 GB ↑ 154 ↓ 46
2020-07-18 U Грейхаунд / Greyhound (2020) WEB-DLRip от Scarabey | HDRezka Studio 1.44 GB ↑ 284 ↓ 36
2020-07-16 U Грейхаунд / Greyhound (2020) WEB-DLRip от MegaPeer | HDRezka Studio 747.86 MB ↑ 44 ↓ 15
2020-07-15 U Грейхаунд / Greyhound (2020) WEB-DL 720p | HDRezka Studio 2.36 GB ↑ 51 ↓ 44

Отзывы
Зарегистрируйтесь чтобы добавить комментарий.
Загрузите программу
  uTorrent.exe
Обратная связь
Copyleft ©