↑↓torrent.by
Поиск
Логин: Регистрация
Пароль: Восстановить пароль

Тайны, которые мы храним / The Secrets We Keep (2020) WEB-DLRip от MediaBit | L

Скачать tayny-kotorye-my-hranim-the-secrets-we-keep-2020-web-dlrip-ot-mediabit-l.torrent
U Магнитная ссылка Размер: 1.46 GB Раздают: 128 Качают: 63 Добавлен: 2020-10-17 18:39:33
Тайны, которые мы храним / The Secrets We Keep (2020) WEB-DLRip от MediaBit | L

Название: Тайны, которые мы храним
Оригинальное название: The Secrets We Keep
Год выхода: 2020
Жанр: Триллер, драма
Режиссер: Юваль Адлер
В ролях: Нуми Рапас, Юэль Киннаман, Крис Мессина, Джексон Дин Винсент, Эми Саймец, Милли Матловски, Мэдисон Пейдж Джонс, Джефф Поуп, Дэвид Мальдонадо, Эд Аматрудо

О фильме: Майа и Льюис - супружеская пара, пережившая холокост во время Второй мировой войны. После освобождения русскими концлагеря, в котором находилась Майа, они переехали в США и поселились в пригороде Нью-Йорка. Там они вместе работают в больнице и растят сына. Спустя 15 лет бывшая узница узнаёт в одном из прохожих немецкого офицера, мучившего её в Румынии. У неё началась бессонница, во время приступов которой женщина твёрдо решает во что бы то ни стало отомстить за перенесённые в молодости страдания

Страна: США
Студия: AGC Studios, Di Bonaventura Pictures, Echo Lake Entertainment
Продолжительность: 01:38:19
Перевод: Любительский многоголосый | @MUZOBOZ@

Файл
Кодек: XviD
Качество: WEB-DLRip
Видео: 1917 Кбит/с, 720x304, 23.976 кадр/с
Звук: AC3, 48 Гц, 192 Кбит/сек, 2 ch (L + R) | MVO | @MUZOBOZ@

Релиз:


[+] MI
Общее
Полное имя                               : D:ТоррентыThe.Secrets.We.Keep.2020.1080p.WEBRip.DD5.1.x264-CMThe.Secrets.We.Keep.2020.RU.XviD.WEB-DLRip-MediaBit.avi
Формат                                   : AVI
Формат/Информация                        : Audio Video Interleave
Профиль формата                          : OpenDML
Размер файла                             : 1,46 Гбайт
Продолжительность                        : 1 ч. 38 м.
Общий поток                              : 2 121 Кбит/сек
Название фильма                          : The Secrets We Keep (2020)
Программа кодирования                    : Lavf58.20.100

Видео
Идентификатор                            : 0
Формат                                   : MPEG-4 Visual
Профиль формата                          : Advanced Simple@L5
Настройки формата                        : BVOP1 / Custom Matrix
Параметр BVOP формата                    : 1
Параметр QPel формата                    : Нет
Параметр GMC формата                     : Без точки перехода
Параметр матрицы формата                 : Выборочная
Идентификатор кодека                     : XVID
Идентификатор кодека/Подсказка           : XviD
Продолжительность                        : 1 ч. 38 м.
Битрейт                                  : 1 917 Кбит/сек
Ширина                                   : 720 пикселей
Высота                                   : 304 пикселя
Соотношение сторон                       : 2,40:1
Частота кадров                           : 23,976 (24000/1001) кадра/сек
Цветовое пространство                    : YUV
Субдискретизация насыщенности            : 4:2:0
Битовая глубина                          : 8 бит
Тип развёртки                            : Прогрессивная
Метод сжатия                             : С потерями
Бит/(Пиксели*Кадры)                      : 0.365
Размер потока                            : 1,32 Гбайт (90%)
Заголовок                                : MediaBit
Библиотека кодирования                   : XviD 67

Аудио
Идентификатор                            : 1
Формат                                   : AC-3
Формат/Информация                        : Audio Coding 3
Коммерческое название                    : Dolby Digital
Идентификатор кодека                     : 2000
Продолжительность                        : 1 ч. 38 м.
Вид битрейта                             : Постоянный
Битрейт                                  : 192 Кбит/сек
Каналы                                   : 2 канала
Channel layout                           : L R
Частота                                  : 48,0 КГц
Частота кадров                           : 31,250 кадров/сек (1536 SPF)
Битовая глубина                          : 16 бит
Метод сжатия                             : С потерями
Размер потока                            : 135 Мбайт (9%)
Выравнивание                             : Соединение по промежуткам
Продолжительность промежутка             : 32  мс. (0,77 видеокадр)
Заголовок                                : MVO [@MUZOBOZ@] MediaBit
Service kind                             : Complete Main



Скриншоты:
[+] Всего файлов в раздаче - 1:
The.Secrets.We.Keep.2020.RU.XviD.WEB-DLRip-MediaBit.avi1.46 GB

Показать еще раздачи по запросу тайны:
2020-10-18 U Тайны, которые мы храним / The Secrets We Keep (2020) WEB-DLRip-AVC от MediaBit | L 1.46 GB ↑ 79 ↓ 14
2020-10-18 U Тайны, которые мы храним / The Secrets We Keep (2020) WEB-DL 1080p от MediaBit | L 5.69 GB ↑ 66 ↓ 26
2020-10-01 U Книжная серия - Военные тайны XX века [191 книга] (1999-2019) FB2, PDF, DJVU 857.10 MB ↑ 101 ↓ 50
2020-09-29 U Тайны Чапман. Место преступления - планета Земля [эфир от 28.09] (2020) SATRip 622.25 MB ↑ 36 ↓ 10
2020-09-21 U BBC: Рысь. Тайны дикой кошки / Snow Cats and Me [01-02 из 02] (2019) HDTV 1080i | P1 5.87 GB ↑ 26 ↓ 9
2020-09-12 U Тайны Чапман. Страна орков [эфир от 11.09] (2020) SATRip 625.72 MB ↑ 27 ↓ 8
2020-06-20 U Засекреченные списки. Всё не то, чем кажется! Самые страшные тайны (2020) SATRip 1.28 GB ↑ 62 ↓ 25

Отзывы
Зарегистрируйтесь чтобы добавить комментарий.
Загрузите программу
  uTorrent.exe
Обратная связь
Copyleft ©