↑↓torrent.by
Поиск
Логин: Регистрация
Пароль: Восстановить пароль

Королева Мария / Королева Румынии - Мария / Queen Marie of Romania (2019) WEB-DL 1080p | iTunes

Скачать koroleva-mariya-rumynii-queen-marie-of-romania-2019-web-dl-1080p-itunes.torrent
U Магнитная ссылка Размер: 3.80 GB Раздают: 83 Качают: 31 Добавлен: 2020-10-17 18:40:08
Королева Мария / Королева Румынии - Мария / Queen Marie of Romania (2019) WEB-DL 1080p | iTunes

Название: Королева Мария / Королева Румынии - Мария
Оригинальное название: Queen Marie of Romania
Год выхода: 2019
Жанр:  Драма
Режиссер: Алексис Кэхилл, Бриджитт Дродхофф
В ролях: Роксана Люпу, Даниэль Плиер, Ричард Элфин, Патрик Друри, Кэролайн Лонк, Роналд Ченери, Адриан Титьени, Анхель Дэмиэн, Юлия Вердес, Филипп Каруа

О фильме: Мария — дитя двух из самых могущественных европейских семей. Она могла стать королевой Великобритании, но несмотря на то, что будущий король Георг V предлагает ей брак, под давлением своей матери, Мария выходит замуж за румынского кронпринца Фердинанда. Жизнь королевы проходит в бурях, скандалах и конфликтах. В 1916 году Румыния вступила в Первую мировую войну на стороне Антанты, рассчитывая в случае победы присоединить территории, населённые этническими румынами. Поначалу Румыния вела успешную кампанию и даже заняла Трансильванию, однако вскоре оказалась окружена войсками противника. Румынская армия потерпела несколько сокрушительных поражений, а вскоре австро-германские войска вторглись на территорию страны. Румыния была вынуждена заключить унизительный мирный договор. Несмотря на то, что король Фердинанд его не ратифицировал, именно из-за этого договора на Парижской мирной конференции отказываются признавать требования Румынии.

Страна: Румыния
Студия: Abis Studio
Продолжительность: 01:49:50
Перевод: Дублированный | iTunes

Файл
Формат: MKV
Качество: WEB-DL 1080p
Видео: MPEG-4 AVC, 1920x808, 4568 kbps, 24.000 fps
Аудио: Russian: АС3, 6 ch, 48 kHz, 384 kbps - DUB, iTunes
Субтитры: Нет

Релиз:


[+] MediaInfo
General
Unique ID                   : 311263634143577090315916673826405903546 (0xEA2B3203160D98E898CC14123B1E6CBA)
Complete name               : QUEEN_MARIE_2019_WEB-DL_1080p-BLUEBIRD.mkv
Format                      : Matroska
Format version              : Version 4
File size                   : 3.80 GiB
Duration                    : 1 h 49 min
Overall bit rate            : 4 954 kb/s
Encoded date                : UTC 2020-10-15 18:16:04
Writing application         : mkvmerge v43.0.0 ('The Quartermaster') 64-bit
Writing library             : libebml v1.3.10 + libmatroska v1.5.2
Cover                       : Yes
Attachments                 : cover.jpg

Video
ID                          : 1
Format                      : AVC
Format/Info                 : Advanced Video Codec
Format profile              : High@L4
Format settings             : CABAC / 5 Ref Frames
Format settings, CABAC      : Yes
Format settings, Reference  : 5 frames
Codec ID                    : V_MPEG4/ISO/AVC
Duration                    : 1 h 49 min
Bit rate                    : 4 568 kb/s
Width                       : 1 920 pixels
Height                      : 808 pixels
Display aspect ratio        : 2.40:1
Frame rate mode             : Constant
Frame rate                  : 24.000 FPS
Color space                 : YUV
Chroma subsampling          : 4:2:0
Bit depth                   : 8 bits
Scan type                   : Progressive
Bits/(Pixel*Frame)          : 0.123
Stream size                 : 3.50 GiB (92%)
Language                    : English
Default                     : Yes
Forced                      : No
Color range                 : Limited
Color primaries             : BT.709
Transfer characteristics    : BT.709
Matrix coefficients         : BT.709

Audio
ID                          : 2
Format                      : AC-3
Format/Info                 : Audio Coding 3
Commercial name             : Dolby Digital
Codec ID                    : A_AC3
Duration                    : 1 h 49 min
Bit rate mode               : Constant
Bit rate                    : 384 kb/s
Channel(s)                  : 6 channels
Channel layout              : L R C LFE Ls Rs
Sampling rate               : 48.0 kHz
Frame rate                  : 31.250 FPS (1536 SPF)
Bit depth                   : 16 bits
Compression mode            : Lossy
Stream size                 : 302 MiB (8%)
Title                       : [DUB] DD 5.1 @ 384 kbps (iTunes)
Language                    : Russian
Service kind                : Complete Main
Default                     : Yes
Forced                      : No

Menu
00:00:00.000                : en:Глава 1
00:04:31.458                : en:Глава 2
00:12:08.916                : en:Глава 3
00:18:44.499                : en:Глава 4
00:25:49.915                : en:Глава 5
00:33:21.581                : en:Глава 6
00:42:13.289                : en:Глава 7
00:48:28.247                : en:Глава 8
00:57:03.580                : en:Глава 9
01:02:15.871                : en:Глава 10
01:08:00.204                : en:Глава 11
01:16:09.329                : en:Глава 12
01:23:49.412                : en:Глава 13
01:29:53.662                : en:Глава 14
01:36:15.870                : en:Глава 15
01:43:08.411                : en:Глава 16



Скриншоты:
[+] Всего файлов в раздаче - 1:
QUEEN_MARIE_2019_WEB-DL_1080p-BLUEBIRD.mkv3.80 GB

Показать еще раздачи по запросу королева:
2020-10-18 U Королева Мария / Королева Румынии - Мария / Queen Marie of Romania (2019) WEB-DLRip от MegaPeer | iTunes 1.46 GB ↑ 38 ↓ 8
2020-10-09 U Королева сердец / Dronningen (2019) BDRip от MegaPeer | iTunes 1.46 GB ↑ 63 ↓ 26
2020-10-09 U Королева сердец / Dronningen (2019) BDRip 1080p от селезень | iTunes 8.43 GB ↑ 87 ↓ 21
2020-10-06 U Фитнес / Королева фитнеса [S04] (2020) WEBRip 720p от Files-x 10.16 GB ↑ 38 ↓ 73
2020-10-05 U Фитнес / Королева фитнеса [S04] (2020) WEBRip от GeneralFilm 5.45 GB ↑ 81 ↓ 101
2020-10-01 U Фитнес / Королева фитнеса [04х01-19 из 20] (2020) WEBRip от GeneralFilm 5.17 GB ↑ 50 ↓ 189
2020-10-01 U Фитнес / Королева фитнеса [04х01-18 из 20] (2020) WEBRip 720p от Files-x 9.16 GB ↑ 27 ↓ 73

Отзывы
Зарегистрируйтесь чтобы добавить комментарий.
Загрузите программу
  uTorrent.exe
Обратная связь
Copyleft ©