↑↓torrent.by
Поиск
Логин: Регистрация
Пароль: Восстановить пароль

Хелстром / Helstrom [01x01 из 10] (2020) WEB-DL 1080p | HDRezka Studio

Скачать helstrom-01x01-iz-10-2020-web-dl-1080p-hdrezka-studio.torrent
U Магнитная ссылка Размер: 1.16 GB Раздают: 77 Качают: 21 Добавлен: 2020-10-17 18:40:18
Хелстром / Helstrom [01x01 из 10] (2020) WEB-DL 1080p | HDRezka Studio

Название: Хелстром
Оригинальное название: Helstrom
Год выхода: 2020
Жанр: Ужасы, фантастика, фэнтези, боевик, драма, приключения
Режиссер: Андерс Энгстрем

В ролях:
Том Остин,, Сидни Леммон, Тарун Керам, Кайл Уоррен, Лео Чианг, Ксавье де Салаберри, Фиона Дуриф, Йорки Хоакин, Арки Кандола, Дэвид Мюнье и др.

Описание сериала:
Дэймон и Ана Хелстром — дети загадочного и могущественного серийного убийцы. В попытке разобраться в собственном происхождении они путешествуют по миру и уничтожают худших представителей человечества.

Страна: США
Студии: ABC Signature Studios, Marvel Television
Продолжительность: ~00:55:00
Перевод: Профессиональный (многоголосый, закадровый) HDRezka Studio
Субтитры: Русские (Forced), английские (SDH)

Файл
Формат: MKV
Качество: WEB-DL (1080p)

Видео: 1920x1080 (16:9), 23,976 fps, AVC (х264), High@L4, ~2257 kbps avg, 0.045 bit/pixel
Аудио RUS: 48 kHz, AC3, 3/2 (L,C,R,l,r) + LFE ch, ~448 kbps
Аудио ENG: 48 kHz, E-AC3, 3/2 (L,C,R,l,r) + LFE ch, ~256 kbps


[+] MediaInfo
Общее
Уникальный идентификатор                 : 129745130167879845553899439217173370493 (0x619C00CD50E7293A98DBE72DF0D0967D)
Полное имя                               : Marvels.Helstrom.S01E01.1080p.HULU.WEB-DL.HDREZKA.STUDIO.mkv
Формат                                   : Matroska
Версия формата                           : Version 4
Размер файла                             : 1,16 Гбайт
Продолжительность                        : 55 м. 49 с.
Общий поток                              : 2 963 Кбит/сек
Дата кодирования                         : UTC 2020-10-17 09:25:40
Программа кодирования                    : mkvmerge v51.0.0 ('I Wish') 64-bit
Библиотека кодирования                   : libebml v1.4.0 + libmatroska v1.6.2

Видео
Идентификатор                            : 1
Формат                                   : AVC
Формат/Информация                        : Advanced Video Codec
Профиль формата                          : High@L4
Настройки формата                        : CABAC / 4 Ref Frames
Параметр CABAC формата                   : Да
Параметр RefFrames формата               : 4 кадра
Идентификатор кодека                     : V_MPEG4/ISO/AVC
Продолжительность                        : 55 м. 49 с.
Битрейт                                  : 2 257 Кбит/сек
Ширина                                   : 1 920 пикселей
Высота                                   : 1 080 пикселей
Соотношение сторон                       : 16:9
Режим частоты кадров                     : Постоянный
Частота кадров                           : 23,976 (24000/1001) кадра/сек
Цветовое пространство                    : YUV
Субдискретизация насыщенности            : 4:2:0
Битовая глубина                          : 8 бит
Тип развёртки                            : Прогрессивная
Бит/(Пиксели*Кадры)                      : 0.045
Размер потока                            : 901 Мбайт (76%)
Default                                  : Да
Forced                                   : Нет

Аудио #1
Идентификатор                            : 2
Формат                                   : AC-3
Формат/Информация                        : Audio Coding 3
Коммерческое название                    : Dolby Digital
Идентификатор кодека                     : A_AC3
Продолжительность                        : 55 м. 49 с.
Вид битрейта                             : Постоянный
Битрейт                                  : 448 Кбит/сек
Каналы                                   : 6 каналов
Channel layout                           : L R C LFE Ls Rs
Частота                                  : 48,0 КГц
Частота кадров                           : 31,250 кадров/сек (1536 SPF)
Метод сжатия                             : С потерями
Размер потока                            : 179 Мбайт (15%)
Язык                                     : Russian
Default                                  : Да
Forced                                   : Нет

Аудио #2
Идентификатор                            : 3
Формат                                   : E-AC-3
Формат/Информация                        : Enhanced AC-3
Коммерческое название                    : Dolby Digital Plus
Идентификатор кодека                     : A_EAC3
Продолжительность                        : 55 м. 49 с.
Вид битрейта                             : Постоянный
Битрейт                                  : 256 Кбит/сек
Каналы                                   : 6 каналов
Channel layout                           : L R C LFE Ls Rs
Частота                                  : 48,0 КГц
Частота кадров                           : 31,250 кадров/сек (1536 SPF)
Метод сжатия                             : С потерями
Размер потока                            : 102 Мбайт (9%)
Язык                                     : English
Default                                  : Нет
Forced                                   : Нет

Текст #1
Идентификатор                            : 4
Формат                                   : UTF-8
Идентификатор кодека                     : S_TEXT/UTF8
Идентификатор кодека/Информация          : UTF-8 Plain Text
Продолжительность                        : 52 м. 54 с.
Битрейт                                  : 4 бит/сек
Count of elements                        : 34
Размер потока                            : 1,61 Кбайт (0%)
Заголовок                                : Forced
Язык                                     : Russian
Default                                  : Да
Forced                                   : Нет

Текст #2
Идентификатор                            : 5
Формат                                   : UTF-8
Идентификатор кодека                     : S_TEXT/UTF8
Идентификатор кодека/Информация          : UTF-8 Plain Text
Продолжительность                        : 55 м. 36 с.
Битрейт                                  : 61 бит/сек
Count of elements                        : 810
Размер потока                            : 24,9 Кбайт (0%)
Заголовок                                : SDH
Язык                                     : English
Default                                  : Нет
Forced                                   : Нет

Меню
00:17:30.000                             : en:Chapter 01
00:27:42.005                             : en:Chapter 02
00:37:07.008                             : en:Chapter 03
00:50:02.007                             : en:Chapter 04



Скриншоты:
[+] Всего файлов в раздаче - 1:
Marvels.Helstrom.S01E01.1080p.HULU.WEB-DL.HDREZKA.STUDIO.mkv1.16 GB

Похожие раздачи по запросу - хелстром:
2020-10-18 U Хелстром / Helstrom [S01] (2020) WEBRip | IdeaFilm 6.40 GB ↑ 141 ↓ 84
2020-10-17 U Хелстром / Helstrom [S01] (2020) WEB-DL 1080p | BaibaKo 11.62 GB ↑ 140 ↓ 324
2020-10-17 U Хелстром / Helstrom [S01] (2020) WEBRip 720p от Kerob | L2 16.26 GB ↑ 77 ↓ 131
2020-10-17 U Хелстром / Helstrom [S01] (2020) WEBRip 1080p от Kerob | L2 24.75 GB ↑ 99 ↓ 196
2020-10-17 U Хелстром / Helstrom [S01] (2020) WEBRip от Kerob | L2 3.61 GB ↑ 54 ↓ 74

Отзывы
Зарегистрируйтесь чтобы добавить комментарий.
Загрузите программу
  uTorrent.exe
Обратная связь
Copyleft ©