↑↓torrent.by
Поиск
Логин: Регистрация
Пароль: Восстановить пароль

Хроники хищных городов / Mortal Engines (2018) BDRip 1080p от qqss44 & MegaPeer | Лицензия

Скачать hroniki-hischnyh-gorodov-mortal-engines-2018-bdrip-1080p-ot-qqss44-megapeer-licenziya.torrent
U Магнитная ссылка Размер: 7.92 GB Раздают: 65 Качают: 9 Добавлен: 2020-10-31 07:25:00
Хроники хищных городов / Mortal Engines (2018) BDRip 1080p от qqss44 & MegaPeer | Лицензия

Анонсы 1080p от qqss44

Информация о фильме
Название: Хроники хищных городов
Оригинальное название: Mortal Engines
Год выпуска: 2018
Жанр: Фантастика, фэнтези, боевик, триллер, приключения
Режиссер: Кристиан Риверс
В ролях: Гера Хилмарсдоттир, Роберт Шиэн, Хьюго Уивинг, Джихе, Ронан Рафтери, Лейла Джордж, Патрик Мэлахайд, Стивен Лэнг, Колин Сэлмон, Марк Митчинсон, Меник Гунератне, Реге Пейдж, Фрэнки Адамс, Лейфур Сигурдарсон, Кан Уэст, Эндрю Лииз, Ки Чан, Сара Пирс, Марк Хэдлоу, Карен Писториус, Поппи Маклеод, Джоэл Тобек, Йосон Ан

О фильме:
Прошли тысячелетия после того, как мир настиг апокалипсис. Человечество адаптировалось и теперь живет по новым правилам. Гигантские движущиеся мегаполисы рассекают пустоши и поглощают маленькие города ради ресурсов. Том Нэтсуорти из нижнего уровня великого Лондона оказывается в смертельной опасности, когда на его пути появляется скрывающаяся от закона бунтарка Эстер Шоу. Они не должны были встретиться, но им суждено изменить будущее.

Страна: Новая Зеландия, США
Студия: Media Rights Capital (MRC), Scholastic Productions, Silvertongue Films
Продолжительность: 02:08:21
Перевод: Дублированный | Лицензия

Файл
Формат: MKV, BDRip 1080p
Видео: MPEG-4 AVC, 7744 Кбит/с, 1920x804
Aудио#1: [RUS] AC3 | 48 KHz | 5.1 (Front: L С R Side: L R) + LFE | ~640 kbps
Aудио#2: [ENG] AC3 | 48 KHz | 5.1 (Front: L С R Side: L R) + LFE | ~448 kbps
Субтитры: русские форсированные + полные, английские полные
Релиз от:


[+] МИ

Общее
Уникальный идентификатор : 173288221437456656250448876549079061032 (0x825E18F3A2FC194C9654ACDBD9845228)
Полное имя : H:Mortal.Engines.(2018).BDRip-1080p.MegaPeer.(qqss44).mkv
Формат : Matroska
Версия формата : Version 2
Размер файла : 7,92 Гбайт
Продолжительность : 2 ч. 8 м.
Общий поток : 8834 Кбит/сек
Название фильма : Mortal.Engines.(2018).BDRip-1080p.MegaPeer.(qqss44)
Дата кодирования : UTC 2019-04-11 12:46:16
Программа кодирования : mkvmerge v7.8.0 ('River Man') 32bit built on Apr 3 2015 12:11:22
Библиотека кодирования : libebml v1.3.1 + libmatroska v1.4.2

Видео
Идентификатор : 1
Формат : AVC
Формат/Информация : Advanced Video Codec
Профиль формата : High@L4.1
Параметр CABAC формата : Да
Параметр ReFrames формата : 5 кадров
Идентификатор кодека : V_MPEG4/ISO/AVC
Продолжительность : 2 ч. 8 м.
Битрейт : 7744 Кбит/сек
Ширина : 1920 пикселей
Высота : 804 пикселя
Соотношение сторон : 2,40:1
Режим частоты кадров : Постоянный
Частота кадров : 23,976 (24000/1001) кадра/сек
Цветовое пространство : YUV
Субдискретизация насыщенности : 4:2:0
Битовая глубина : 8 бит
Тип развёртки : Прогрессивная
Бит/(Пиксели*Кадры) : 0.209
Размер потока : 6,79 Гбайт (86%)
Библиотека кодирования : x264 core 152 r2851 ba24899
Настройки программы : cabac=1 / ref=5 / deblock=1:-3:-3 / analyse=0x3:0x113 / me=umh / subme=11 / psy=1 / psy_rd=1.00:0.00 / mixed_ref=1 / me_range=32 / chroma_me=1 / trellis=2 / 8x8dct=1 / cqm=0 / deadzone=21,11 / fast_pskip=0 / chroma_qp_offset=-2 / threads=12 / lookahead_threads=2 / sliced_threads=0 / nr=0 / decimate=0 / interlaced=0 / bluray_compat=0 / constrained_intra=0 / bframes=9 / b_pyramid=2 / b_adapt=2 / b_bias=0 / direct=3 / weightb=1 / open_gop=0 / weightp=2 / keyint=250 / keyint_min=23 / scenecut=40 / intra_refresh=0 / rc_lookahead=40 / rc=2pass / mbtree=0 / bitrate=7744 / ratetol=1.0 / qcomp=0.69 / qpmin=0 / qpmax=69 / qpstep=4 / cplxblur=20.0 / qblur=0.5 / vbv_maxrate=50000 / vbv_bufsize=62500 / nal_hrd=none / filler=0 / ip_ratio=1.40 / pb_ratio=1.30 / aq=3:0.80
Язык : English
Default : Да
Forced : Нет

Аудио #1
Идентификатор : 2
Формат : AC-3
Формат/Информация : Audio Coding 3
Расширение режима : CM (complete main)
Параметр Endianness формата : Big
Идентификатор кодека : A_AC3
Продолжительность : 2 ч. 8 м.
Вид битрейта : Постоянный
Битрейт : 640 Кбит/сек
Каналы : 6 каналов
Расположение каналов : Front: L C R, Side: L R, LFE
Частота : 48,0 КГц
Частота кадров : 31,250 кадров/сек (1536 spf)
Метод сжатия : С потерями
Размер потока : 588 Мбайт (7%)
Язык : Russian
Default : Да
Forced : Нет

Аудио #2
Идентификатор : 3
Формат : AC-3
Формат/Информация : Audio Coding 3
Расширение режима : CM (complete main)
Параметр Endianness формата : Big
Идентификатор кодека : A_AC3
Продолжительность : 2 ч. 8 м.
Вид битрейта : Постоянный
Битрейт : 448 Кбит/сек
Каналы : 6 каналов
Расположение каналов : Front: L C R, Side: L R, LFE
Частота : 48,0 КГц
Частота кадров : 31,250 кадров/сек (1536 spf)
Метод сжатия : С потерями
Размер потока : 411 Мбайт (5%)
Язык : English
Default : Нет
Forced : Нет

Текст #1
Идентификатор : 4
Формат : UTF-8
Идентификатор кодека : S_TEXT/UTF8
Идентификатор кодека/Информация : UTF-8 Plain Text
Заголовок : FORCED
Язык : Russian
Default : Да
Forced : Нет

Текст #2
Идентификатор : 5
Формат : UTF-8
Идентификатор кодека : S_TEXT/UTF8
Идентификатор кодека/Информация : UTF-8 Plain Text
Заголовок : FULL
Язык : Russian
Default : Нет
Forced : Нет

Текст #3
Идентификатор : 6
Формат : UTF-8
Идентификатор кодека : S_TEXT/UTF8
Идентификатор кодека/Информация : UTF-8 Plain Text
Заголовок : FULL
Язык : English
Default : Нет
Forced : Нет

Меню
00:00:00.000 : :绗?01 绔?
00:09:24.397 : :绗?02 绔?
00:16:13.306 : :绗?03 绔?
00:24:20.626 : :绗?04 绔?
00:31:24.591 : :绗?05 绔?
00:35:53.068 : :绗?06 绔?
00:41:27.819 : :绗?07 绔?
00:44:53.816 : :绗?08 绔?
00:50:16.805 : :绗?09 绔?
00:54:21.175 : :绗?10 绔?
01:00:51.398 : :绗?11 绔?
01:07:12.070 : :绗?12 绔?
01:11:12.852 : :绗?13 绔?
01:17:37.736 : :绗?14 绔?
01:25:25.620 : :绗?15 绔?
01:33:30.396 : :绗?16 绔?
01:39:28.546 : :绗?17 绔?
01:47:58.263 : :绗?18 绔?
01:52:11.558 : :绗?19 绔?
01:58:33.523 : :绗?20 绔?




Скриншоты:
[+] Всего файлов в раздаче - 1:
Mortal.Engines.(2018).BDRip-1080p.MegaPeer.(qqss44).mkv7.92 GB

Показать еще раздачи по запросу хроники:
2021-02-28 U Михаил Тихонов - Мизантроп 1, Хроники мизантропа. Бродяга (2021) MP3 381.51 MB ↑ 42 ↓ 6
2020-11-25 U Рождественские хроники 2 / The Christmas Chronicles 2 (2020) WEB-DL 1080p от селезень | Netflix 5.41 GB ↑ 249 ↓ 227
2020-07-23 U Хроники хищных городов / Mortal Engines (2018) WEB-DLRip 720p от SuperMin | D | Open Matte 3.84 GB ↑ 127 ↓ 32
2020-03-12 U S.T.A.L.K.E.R. - Хроники Кайдана (2020) PC | Repack by Geo 3.85 GB ↑ 11142 ↓ 626
2019-08-12 U Хроники видика: легенды эпохи VHS (2018) WEB-DLRip от ExKinoRay 2.49 GB ↑ 567 ↓ 51
2019-04-03 U Хроники хищных городов / Mortal Engines (2018) BDRip 1080p от Ash61 | 3D-Video | halfOU | iTunes 9.88 GB ↑ 50 ↓ 40
2019-01-31 U Хроники хищных городов / Mortal Engines (2018) WEB-DL 1080p от селезень | iTunes 4.38 GB ↑ 2513 ↓ 1061

Отзывы
Зарегистрируйтесь чтобы добавить комментарий.
Загрузите программу
  uTorrent.exe
Обратная связь
Copyleft ©