↑↓torrent.by
Поиск
Логин: Регистрация
Пароль: Восстановить пароль

Бокс. Александр Усик - Дерек Чисора [31.10] (2020) IPTV 1080p

Скачать boks-aleksandr-usik-derek-chisora-31-10-2020-iptv-1080p.torrent
U Магнитная ссылка Размер: 2.04 GB Раздают: 121 Качают: 22 Добавлен: 2020-11-03 19:55:00
Бокс. Александр Усик - Дерек Чисора [31.10] (2020) IPTV 1080p

Название: Бокс. Александр Усик — Дерек Чисора
Год выхода: 2020
Жанр: Бокс

Телеканал: Беларусь 5 HD

Описание:
Александр Усик — Дерек Чисора — рейтинговый профессиональный боксерский 12-раундовый поединок в тяжёлом весе за статус официального претендента на титул чемпиона мира по версии WBO. Поединок состоялся 31 октября 2020 года на Уэмбли Арене в Лондоне

Страна: Великобритания
Продолжительность: 01:22:41
Язык комментариев: Русский (П. Баранов)

Файл
Кодек: x.264
Качество: IPTV 1080p
Видео: AVC, 1920x1080 (16:9), 25.000 fps, 3 374 kb/s
Аудио: AAC, 48.0 kHz, 2 ch, 161 kb/s
[+] MI
General
Unique ID                                : 238774746762931044477543309386379340307 (0xB3A257EE01535D018F3DEAF8DE1AAA13)
Complete name                            : Dereck Chisora vs Oleksandr Usyk (31-10-2020) [RUS] 1080p.mkv
Format                                   : Matroska
Format version                           : Version 4
File size                                : 2.04 GiB
Duration                                 : 1 h 22 min
Overall bit rate mode                    : Variable
Overall bit rate                         : 3 538 kb/s
Encoded date                             : UTC 2020-11-03 11:12:07
Writing application                      : mkvmerge v8.3.0 ('Over the Horizon') 64bit
Writing library                          : libebml v1.3.1 + libmatroska v1.4.2

Video
ID                                       : 1
Format                                   : AVC
Format/Info                              : Advanced Video Codec
Format profile                           : High@L4
Format settings                          : CABAC / 1 Ref Frames
Format settings, CABAC                   : Yes
Format settings, ReFrames                : 1 frame
Format settings, GOP                     : M=1, N=50
Codec ID                                 : V_MPEG4/ISO/AVC
Duration                                 : 1 h 22 min
Bit rate mode                            : Variable
Bit rate                                 : 3 374 kb/s
Maximum bit rate                         : 3 500 kb/s
Width                                    : 1 920 pixels
Height                                   : 1 080 pixels
Display aspect ratio                     : 16:9
Frame rate mode                          : Constant
Frame rate                               : 25.000 FPS
Color space                              : YUV
Chroma subsampling                       : 4:2:0
Bit depth                                : 8 bits
Scan type                                : Progressive
Bits/(Pixel*Frame)                       : 0.065
Stream size                              : 1.95 GiB (95%)
Default                                  : Yes
Forced                                   : No

Audio
ID                                       : 2
Format                                   : AAC LC
Format/Info                              : Advanced Audio Codec Low Complexity
Codec ID                                 : A_AAC-2
Duration                                 : 1 h 22 min
Bit rate                                 : 161 kb/s
Channel(s)                               : 2 channels
Channel layout                           : L R
Sampling rate                            : 48.0 kHz
Frame rate                               : 46.875 FPS (1024 SPF)
Compression mode                         : Lossy
Delay relative to video                  : 12 ms
Stream size                              : 95.4 MiB (5%)
Language                                 : Russian
Default                                  : Yes
Forced                                   : No



Скриншоты:
[+] Всего файлов в раздаче - 1:
Dereck Chisora vs Oleksandr Usyk (31-10-2020) [RUS] 1080p.mkv2.04 GB

Похожие раздачи по запросу - бокс:
2020-10-18 U Бокс. Василий Ломаченко - Теофимо Лопес [18.10] (2020) WEB-DL 720р 1.41 GB ↑ 230 ↓ 61
2020-08-23 U Бокс. Диллиан Уайт - Александр Поветкин [22.08] (2020) WEBRip 1080р 3.11 GB ↑ 224 ↓ 105

Отзывы
Зарегистрируйтесь чтобы добавить комментарий.
Загрузите программу
  uTorrent.exe
Обратная связь
Copyleft ©