↑↓torrent.by
Поиск
Логин: Регистрация
Пароль: Восстановить пароль

КВН-2020. Голосящий КиВиН в Светлогорске [04.11] (2020) HDTVRip от GeneralFilm

Скачать kvn-2020-golosyaschiy-kivin-v-svetlogorske-04-11-hdtvrip-ot-generalfilm.torrent
U Магнитная ссылка Размер: 1.86 GB Раздают: 452 Качают: 209 Добавлен: 2020-11-05 15:42:17
КВН-2020. Голосящий КиВиН в Светлогорске [04.11] (2020) HDTVRip от GeneralFilm

Год выпуска: 2020
Жанр:  Юмор
Выпущено: Россия, АМИК, Первый канал
Ведущий: Александр Масляков

О фильме: Лучшие команды Клуба Веселых и Находчивых разыграют награды международного музыкального фестиваля "Голосящий КиВиН". Самый музыкальный из всех юмористических и самый юмористический из всех музыкальных конкурс подарит зрителям отличное настроение, ведь когда в одном месте собирается столько любителей пошутить, по-другому и быть не может!

Качество: HDTVRip
Видео: XviD, 1599 Кбит/с, 720х400, 25 кадр/с
Аудио: Русский (AC3, 2 ch, 192 Кбит/с)
Продолжительность: 02:28:12
Перевод: Не требуется
Субтитры: нет

Релиз:
[+] MediaInfo

Общее
Полное имя                               : D:KVN-2020.Golosjashhij KiViN.HDTVRip.GeneralFilm.avi
Формат                                   : AVI
Формат/Информация                        : Audio Video Interleave
Размер файла                             : 1,86 Гбайт
Продолжительность                        : 2 ч. 28 м.
Общий поток                              : 1801 Кбит/сек
Программа кодирования                    : VirtualDubMod 1.5.10.3 | www.virtualdub-fr.org || (build 2550/release)
Библиотека кодирования                   : VirtualDubMod build 2550/release

Видео
Идентификатор                            : 0
Формат                                   : MPEG-4 Visual
Профиль формата                          : Advanced Simple@L5
Параметр BVOP формата                    : 1
Параметр QPel формата                    : Нет
Параметр GMC формата                     : Без точки перехода
Параметр матрицы формата                 : Выборочная
Идентификатор кодека                     : XVID
Идентификатор кодека/Подсказка           : XviD
Продолжительность                        : 2 ч. 28 м.
Битрейт                                  : 1599 Кбит/сек
Ширина                                   : 720 пикселей
Высота                                   : 400 пикселей
Соотношение сторон                       : 16:9
Частота кадров                           : 25,000 кадров/сек
Цветовое пространство                    : YUV
Субдискретизация насыщенности            : 4:2:0
Битовая глубина                          : 8 бит
Тип развёртки                            : Прогрессивная
Метод сжатия                             : С потерями
Бит/(Пиксели*Кадры)                      : 0.222
Размер потока                            : 1,66 Гбайт (89%)
Библиотека кодирования                   : XviD 73

Аудио
Идентификатор                            : 1
Формат                                   : AC-3
Формат/Информация                        : Audio Coding 3
Расширение режима                        : CM (complete main)
Параметр Endianness формата              : Big
Идентификатор кодека                     : 2000
Продолжительность                        : 2 ч. 28 м.
Вид битрейта                             : Постоянный
Битрейт                                  : 192 Кбит/сек
Каналы                                   : 2 канала
Расположение каналов                     : Front: L R
Частота                                  : 48,0 КГц
Битовая глубина                          : 16 бит
Метод сжатия                             : С потерями
Размер потока                            : 204 Мбайт (11%)
Выравнивание                             : Разделение по промежуткам
Продолжительность промежутка             : 40  мс. (1,00 видеокадр)
Время предзагрузки промежутка            : 500  мс.




[+] Команды

1. «Уже не дети», Калининградская область, г. Светлый
2. «Так-то», г. Красноярск
3. «Михаил Дудиков», Ставрополь, СКФУ
4. «Такая история», ОГУ, г. Орел
5. «Наполеон Динамит», Тюменская область
6. «Армянская сборная», г. Москва
7. «ЮРА», Сборная университета “СИНЕРГИЯ”г. Москва
8. «Сборная Татнефти», г. Альметьевск
9. «Станция Динамо», РЭУ им. Плеханова, г. Москва
10. «Полуостров», КФУ, г. Симферополь
11. «Русская дорога», Сборная АГПУ, г. Армавир
12. «Дети Тьюринга», БГУ, г. Минск
13. «Сборная Снежногорска», Мурманск – столица Арктики



[+] Жюри

Пелагея, Полина Гагарина, Семён Слепаков, Сергей Светлаков и Валдис Пельш.



Скриншоты:
[+] Всего файлов в раздаче - 1:
KVN-2020.Golosjashhij KiViN.HDTVRip.GeneralFilm.avi1.86 GB

Похожие раздачи по запросу - голосящий:
2020-11-05 U КВН-2020. Голосящий КиВиН в Светлогорске [эфир от 04.11] (2020) HDTV 1080i 8.20 GB ↑ 197 ↓ 121

Отзывы
Зарегистрируйтесь чтобы добавить комментарий.
Загрузите программу
  uTorrent.exe
Обратная связь
Copyleft ©