↑↓torrent.by
Поиск
Логин: Регистрация
Пароль: Восстановить пароль

Губка Боб в бегах / The SpongeBob Movie: Sponge on the Run (2020) UHD WEB-DL 2160p от селезень | 4K | HDR | Netflix

Скачать gubka-bob-v-begah-the-spongebob-movie-sponge-on-run-2020-uhd-web-dl-2160p-ot-selezen-4k-hdr-netflix.torrent
U Магнитная ссылка Размер: 11.14 GB Раздают: 75 Качают: 57 Добавлен: 2020-11-06 11:07:33
Губка Боб в бегах / The SpongeBob Movie: Sponge on the Run (2020) UHD WEB-DL 2160p от селезень | 4K | HDR | Netflix

Название: Губка Боб в бегах
Оригинальное название: The SpongeBob Movie: Sponge on the Run
Год выхода: 2020
Жанр: Мультфильм, комедия, приключения, семейный, мюзикл, полнометражный
Режиссер: Тим Хилл
В ролях: Том Кенни, Билл Фагербакки, Роджер Бампасс, Клэнси Браун, Мистер Лоуренс, Киану Ривз, Аквафина, Лори Алан, Снуп Догг, Мэри Джо Кэтлетт, Джим Мескимен, Регги Уоттс, Джилл Тэлли, Кэролин Лоуренс, Антонио Рауль Корбо

О фильме: Губка Боб и Патрик вынуждены отправиться в опасное путешествие, чтобы найти пропавшего питомца Гэри. Поиски похищенной улитки приводят друзей в манящий и обманчивый затерянный город Атлантик-Сити — обитель развлечений и порока. Но в конечном итоге любые неприятности помогут преодолеть сила дружбы.

Страна: Южная Корея, США
Студия: Nickelodeon Animation Studios, Nickelodeon Movies, Paramount Animation, Paramount Players, United Plankton Pictures
Продолжительность: 01:35:23
Перевод: Дублированный | Netflix

Качество: WEB-DL 2160p
Видео: 3840x2160 at 23.976 fps, MPEG-H HEVC HDR Video, 14600 kbps avg
Аудио #01: 48 kHz, E-AC3, 5.1, 640 Kbps | Дублированный | RUS |
Аудио #02: 48 kHz, AC3, 5.1, 640 Kbps | Дублированный | RUS |
Аудио #03: 48 kHz, E-AC3, 5.1, 640 Kbps | Дублированный | UKR |
Аудио #04: 48 kHz, E-AC3+Atmos, 5.1, 768 Kbps | Оригинал | ENG |
Субтитры: Русские (Forced, full), украинские (Forced, full), английские

Релиз: Присоединяйся к:


[+] MI
General
Unique ID                   : 3006852912432140776836586667227260650 (0x243194B5DAA7936B66678F08A88A6EA)
Complete name               : D:Video111The.SpongeBob.Movie.Sponge.on.the.Run.2020.WEB-DL.2160p.HDR.seleZen.mkv
Format                      : Matroska
Format version              : Version 4
File size                   : 11.1 GiB
Duration                    : 1 h 35 min
Overall bit rate            : 16.7 Mb/s
Movie name                  : The SpongeBob Movie: Sponge on the Run 2020 from seleZen
Encoded date                : UTC 2020-11-05 20:28:45
Writing application         : mkvmerge v40.0.0 ('Old Town Road + Pony') 64-bit
Writing library             : libebml v1.3.9 + libmatroska v1.5.2

Video
ID                          : 1
Format                      : HEVC
Format/Info                 : High Efficiency Video Coding
Format profile              : Main 10@L5@Main
HDR format                  : SMPTE ST 2086, HDR10 compatible
Codec ID                    : V_MPEGH/ISO/HEVC
Duration                    : 1 h 31 min
Bit rate                    : 14.6 Mb/s
Width                       : 3 840 pixels
Height                      : 2 160 pixels
Display aspect ratio        : 16:9
Frame rate mode             : Constant
Frame rate                  : 23.976 (24000/1001) FPS
Color space                 : YUV
Chroma subsampling          : 4:2:0 (Type 2)
Bit depth                   : 10 bits
Bits/(Pixel*Frame)          : 0.074
Stream size                 : 9.35 GiB (84%)
Language                    : English
Default                     : Yes
Forced                      : No
Color range                 : Limited
Color primaries             : BT.2020
Transfer characteristics    : PQ
Matrix coefficients         : BT.2020 non-constant
Mastering display color pri : Display P3
Mastering display luminance : min: 0.0001 cd/m2, max: 1000 cd/m2
Maximum Content Light Level : 994 cd/m2
Maximum Frame-Average Light : 180 cd/m2

Audio #1
ID                          : 2
Format                      : E-AC-3
Format/Info                 : Enhanced AC-3
Commercial name             : Dolby Digital Plus
Codec ID                    : A_EAC3
Duration                    : 1 h 35 min
Bit rate mode               : Constant
Bit rate                    : 640 kb/s
Channel(s)                  : 6 channels
Channel layout              : L R C LFE Ls Rs
Sampling rate               : 48.0 kHz
Frame rate                  : 31.250 FPS (1536 SPF)
Compression mode            : Lossy
Stream size                 : 437 MiB (4%)
Title                       : Dub
Language                    : Russian
Service kind                : Complete Main
Default                     : Yes
Forced                      : Yes

Audio #2
ID                          : 3
Format                      : AC-3
Format/Info                 : Audio Coding 3
Commercial name             : Dolby Digital
Codec ID                    : A_AC3
Duration                    : 1 h 35 min
Bit rate mode               : Constant
Bit rate                    : 640 kb/s
Channel(s)                  : 6 channels
Channel layout              : L R C LFE Ls Rs
Sampling rate               : 48.0 kHz
Frame rate                  : 31.250 FPS (1536 SPF)
Compression mode            : Lossy
Stream size                 : 437 MiB (4%)
Title                       : Dub
Language                    : Russian
Service kind                : Complete Main
Default                     : No
Forced                      : No

Audio #3
ID                          : 4
Format                      : E-AC-3
Format/Info                 : Enhanced AC-3
Commercial name             : Dolby Digital Plus
Codec ID                    : A_EAC3
Duration                    : 1 h 35 min
Bit rate mode               : Constant
Bit rate                    : 640 kb/s
Channel(s)                  : 6 channels
Channel layout              : L R C LFE Ls Rs
Sampling rate               : 48.0 kHz
Frame rate                  : 31.250 FPS (1536 SPF)
Compression mode            : Lossy
Stream size                 : 437 MiB (4%)
Title                       : Dub
Language                    : Ukrainian
Service kind                : Complete Main
Default                     : No
Forced                      : No

Audio #4
ID                          : 5
Format                      : E-AC-3 JOC
Format/Info                 : Enhanced AC-3 with Joint Object Coding
Commercial name             : Dolby Digital Plus with Dolby Atmos
Codec ID                    : A_EAC3
Duration                    : 1 h 35 min
Bit rate mode               : Constant
Bit rate                    : 768 kb/s
Channel(s)                  : 6 channels
Channel layout              : L R C LFE Ls Rs
Sampling rate               : 48.0 kHz
Frame rate                  : 31.250 FPS (1536 SPF)
Compression mode            : Lossy
Stream size                 : 524 MiB (5%)
Title                       : Original
Language                    : English
Service kind                : Complete Main
Default                     : No
Forced                      : No
Complexity index            : 16
Number of dynamic objects   : 15
Bed channel count           : 1 channel
Bed channel configuration   : LFE

Text #1
ID                          : 6
Format                      : UTF-8
Codec ID                    : S_TEXT/UTF8
Codec ID/Info               : UTF-8 Plain Text
Duration                    : 1 h 30 min
Bit rate                    : 3 b/s
Count of elements           : 51
Stream size                 : 2.39 KiB (0%)
Title                       : Forced
Language                    : Russian
Default                     : Yes
Forced                      : Yes

Text #2
ID                          : 7
Format                      : UTF-8
Codec ID                    : S_TEXT/UTF8
Codec ID/Info               : UTF-8 Plain Text
Duration                    : 1 h 30 min
Bit rate                    : 97 b/s
Count of elements           : 1343
Stream size                 : 65.2 KiB (0%)
Title                       : Full
Language                    : Russian
Default                     : No
Forced                      : No

Text #3
ID                          : 8
Format                      : UTF-8
Codec ID                    : S_TEXT/UTF8
Codec ID/Info               : UTF-8 Plain Text
Duration                    : 1 h 30 min
Bit rate                    : 3 b/s
Count of elements           : 52
Stream size                 : 2.41 KiB (0%)
Title                       : Forced
Language                    : Ukrainian
Default                     : No
Forced                      : No

Text #4
ID                          : 9
Format                      : UTF-8
Codec ID                    : S_TEXT/UTF8
Codec ID/Info               : UTF-8 Plain Text
Duration                    : 1 h 30 min
Bit rate                    : 98 b/s
Count of elements           : 1342
Stream size                 : 65.5 KiB (0%)
Title                       : Full
Language                    : Ukrainian
Default                     : No
Forced                      : No

Text #5
ID                          : 10
Format                      : UTF-8
Codec ID                    : S_TEXT/UTF8
Codec ID/Info               : UTF-8 Plain Text
Duration                    : 1 h 29 min
Bit rate                    : 72 b/s
Count of elements           : 1665
Stream size                 : 47.7 KiB (0%)
Title                       : SDH
Language                    : English
Default                     : No
Forced                      : No



Скриншоты:
[+] Всего файлов в раздаче - 1:
The.SpongeBob.Movie.Sponge.on.the.Run.2020.WEB-DL.2160p.HDR.seleZen.mkv11.14 GB

Похожие раздачи по запросу - губка:
2020-11-08 U Губка Боб в бегах / The SpongeBob Movie: Sponge on the Run (2020) WEB-DLRip от Twister & ExKinoRay | Netflix 1.46 GB ↑ 39 ↓ 20
2020-11-07 U Губка Боб в бегах / The SpongeBob Movie: Sponge on the Run (2020) WEB-DLRip-AVC | Netflix 3.02 GB ↑ 38 ↓ 8
2020-11-07 U Губка Боб в бегах / The SpongeBob Movie: Sponge on the Run (2020) WEB-DLRip-AVC | Netflix 1.97 GB ↑ 50 ↓ 10
2020-11-05 U Губка Боб в бегах / The SpongeBob Movie: Sponge on the Run (2020) WEB-DLRip от MegaPeer | Netflix 1.46 GB ↑ 179 ↓ 116
2020-11-05 U Губка Боб в бегах / The SpongeBob Movie: Sponge on the Run (2020) WEB-DL 720p от селезень | Netflix 4.63 GB ↑ 210 ↓ 175
2020-11-05 U Губка Боб в бегах / The SpongeBob Movie: Sponge on the Run (2020) WEB-DL 1080p от селезень | Netflix 6.59 GB ↑ 248 ↓ 259

Отзывы
Зарегистрируйтесь чтобы добавить комментарий.
Загрузите программу
  uTorrent.exe
Обратная связь
Copyleft ©