↑↓torrent.by
Поиск
Логин: Регистрация
Пароль: Восстановить пароль

Белка и Стрелка: Карибская тайна (2020) WEB-DL 720p от ELEKTRI4KА | iTunes

Скачать belka-i-strelka-karibskaya-tayna-2020-web-dl-720p-ot-elektri4ka-itunes.torrent
U Магнитная ссылка Размер: 2.44 GB Раздают: 76 Качают: 7 Добавлен: 2020-11-09 04:59:19
Белка и Стрелка: Карибская тайна (2020) WEB-DL 720p от ELEKTRI4KА | iTunes

Информация
Название: Белка и Стрелка: Карибская тайна
Год выхода: 2020
Жанр: Мультфильм, комедия, приключения, семейный, полнометражный
Режиссер: Инна Евланникова
В ролях: Евгений Миронов, Ирина Пегова, Юлия Пересильд, Сергей Шнуров, Сергей Бурунов, Сергей Дьячков, Диомид Виноградов, Елена Шульман, Антон Виноградов, Андрей Лёвин

Описание: У берегов Кубы происходит загадочная аномалия – огромный водяной смерч всасывает воду, осушая океан. Решением советского командования Белка и Стрелка отправляются к острову братских народов с разведывательной миссией. Красочная Куба, лазурная гладь океана и окутанный тайнами подводный мир встречают героев. Четвероногим исследователям и их команде предстоят опасные приключения, которые не только приведут их к разгадке кубинской аномалии, но и проверят дружбу на прочность.

Выпущено: Россия / Киностудия им. М. Горького, КиноАтис
Продолжительность: 01:19:52
Озвучивание: Оригинальное | iTunes

Файл
Формат: MKV
Качество: WEB-DL 720p
Видео: MPEG-4 AVC, 3996 Kb/s, 1280x692
Аудио: Russian: 48 kHz, AC3 Dolby Digital, 3/2 (L, C, R, l, r) + LFE ch, ~384 Kbps
Субтитры: Нет
Дополнительно: Сохранены оригинальные чаптеры.

Релиз: &


[+] MediaInfo:
Complete name : Belka.i.Strelka.Karibskaya.tayna.2020.WEB-DL.720p.ELEKTRI4KA.UNIONGANG.mkv
Format : Matroska
Format version : Version 4 / Version 2
File size : 2.44 GiB
Duration : 1 h 19 min
Overall bit rate : 4 382 kb/s
Movie name : .ELEKTRI4KA.UNIONGANG.
Encoded date : UTC 2020-11-08 00:25:58
Writing application : mkvmerge v8.3.0 ('Over the Horizon') 64bit
Writing library : libebml v1.3.1 + libmatroska v1.4.2

Video
ID : 1
Format : AVC
Format/Info : Advanced Video Codec
Format profile : High@L3.1
Format settings, CABAC : No
Format settings, Reference frames : 2 frames
Codec ID : V_MPEG4/ISO/AVC
Duration : 1 h 19 min
Bit rate : 3 996 kb/s
Width : 1 280 pixels
Height : 692 pixels
Display aspect ratio : 1.85:1
Frame rate mode : Constant
Frame rate : 24.000 FPS
Color space : YUV
Chroma subsampling : 4:2:0
Bit depth : 8 bits
Scan type : Progressive
Bits/(Pixel*Frame) : 0.188
Stream size : 2.23 GiB (91%)
Title : .ELEKTRI4KA.UNIONGANG.
Default : Yes
Forced : No
Color range : Limited
Color primaries : BT.709
Transfer characteristics : BT.709
Matrix coefficients : BT.709

Audio
ID : 2
Format : AC-3
Format/Info : Audio Coding 3
Mode extension : CM (complete main)
Format settings, Endianness : Big
Codec ID : A_AC3
Duration : 1 h 19 min
Bit rate mode : Constant
Bit rate : 384 kb/s
Channel(s) : 6 channels
Channel positions : Front: L C R, Side: L R, LFE
Sampling rate : 48.0 kHz
Frame rate : 31.250 FPS (1536 spf)
Bit depth : 16 bits
Compression mode : Lossy
Stream size : 219 MiB (9%)
Title : Original (iTunes)
Language : Russian
Default : Yes
Forced : No

Menu
00:00:00.000 : en:Глава 1
00:07:18.625 : en:Глава 2
00:15:42.750 : en:Глава 3
00:24:02.958 : en:Глава 4
00:31:30.999 : en:Глава 5
00:38:55.707 : en:Глава 6
00:47:01.998 : en:Глава 7
00:55:13.831 : en:Глава 8
01:04:16.206 : en:Глава 9
01:12:06.622 : en:Глава 10



Скриншоты:
[+] Всего файлов в раздаче - 1:
Belka.i.Strelka.Karibskaya.tayna.2020.WEB-DL.720p.ELEKTRI4KA.UNIONGANG.mkv2.44 GB

Похожие раздачи по запросу - белка:
2020-11-08 U Белка и Стрелка: Карибская тайна (2020) WEB-DLRip от ELEKTRI4KА | iTunes 1.37 GB ↑ 89 ↓ 25
2020-11-08 U Белка и Стрелка: Карибская тайна (2020) WEB-DL 1080p от ELEKTRI4KА | iTunes 3.07 GB ↑ 136 ↓ 55
2020-10-30 U Белка и Стрелка: Карибская тайна (2020) WEB-DLRip 1.45 GB ↑ 45 ↓ 29

Отзывы
Зарегистрируйтесь чтобы добавить комментарий.
Загрузите программу
  uTorrent.exe
Обратная связь
Copyleft ©