↑↓torrent.by
Поиск
Логин: Регистрация
Пароль: Восстановить пароль

Семейка Бигфутов / Bigfoot Family (2020) WEB-DL 1080p от ELEKTRI4KА | Line

Скачать semeyka-bigfutov-bigfoot-family-2020-web-dl-1080p-ot-elektri4ka-line.torrent
U Магнитная ссылка Размер: 3.74 GB Раздают: 98 Качают: 57 Добавлен: 2020-11-10 08:15:25
Семейка Бигфутов / Bigfoot Family (2020) WEB-DL 1080p от ELEKTRI4KА | Line

Название: Семейка Бигфутов
Оригинальное название: Bigfoot Family
Год выхода: 2020
Жанр: Мультфильм, приключения, семейный, полнометражный
Режиссер: Жереми Дегрусон, Бен Стассен
В ролях: Килиан Труильяр, Алексис Виктор, Мари Шевало, Фредерик Сутерель, Себастьян Дежу, Пьер Тессье, Ксавьер Фаньон, Клара Куиличини

О фильме: Все семьи разные, но эта – самая разношерстная. Папа когда-то превратился в Бигфута, сын унаследовал его суперспособности и умение понимать язык животных, так еще и в доме вместе с ними и мамой живет целый зоопарк – огромный медведь, неутомимая белка и беспокойный енот со множеством очаровательных детенышей. Когда же уникальному заповеднику на Аляске понадобится помощь, вся семейка Бигфутов отправится в большое путешествие и покажет всему миру, на что способна их команда…

Выпущено: Бельгия, Франция / Belga Productions, Illuminata Pictures, nWave Pictures
Продолжительность: 01:28:39
Озвучивание: Дублированное | Line «CPI Films»
Примечание: Без рекламы!

Файл
Формат: MKV
Качество: WEB-DL 1080p
Видео: MPEG-4 AVC, 5461 Kb/s, 1920x1080
Аудио #1: Russian: 48 kHz, AC3 Dolby Digital, 2/0 (L, R) ch, ~192 Kbps | DUB | Line «CPI Films»
Аудио #2: English: 48 kHz, AC3 Dolby Digital, 3/2 (L, C, R, l, r) + LFE ch, ~384 Kbps | Original
Субтитры: Нет
Дополнительно: Нет

*** Работа со звуком Ююки

Релиз: &


[+] MediaInfo:
Complete name: Semeyka.Bigfutov.2020.1080p.WEB-DL.ELEKTRI4KA.UNIONGANG.mkv
Format: Matroska
Format version: Version 4 / Version 2
File size: 3.74 GiB
Duration: 1 h 28 min
Overall bit rate: 6 039 kb/s
Movie name: .ELEKTRI4KA.UNIONGANG.
Encoded date: UTC 2020-11-09 12:07:20
Writing application: mkvmerge v8.3.0 ('Over the Horizon') 64bit
Writing library: libebml v1.3.1 + libmatroska v1.4.2

Video
ID: 1
Format: AVC
Format/Info: Advanced Video Codec
Format profile: High@L4
Format settings, CABAC: Yes
Format settings, Reference frames: 2 frames
Codec ID: V_MPEG4/ISO/AVC
Duration: 1 h 28 min
Bit rate: 5 461 kb/s
Width: 1 920 pixels
Height: 1 080 pixels
Display aspect ratio: 16:9
Frame rate mode: Constant
Frame rate: 24.000 FPS
Color space: YUV
Chroma subsampling: 4:2:0
Bit depth: 8 bits
Scan type: Progressive
Bits/(Pixel*Frame): 0.110
Stream size: 3.38 GiB (90%)
Title: .ELEKTRI4KA.UNIONGANG.
Writing library: x264 core 155 r2901 7d0ff22
Default: Yes
Forced: No
Color range: Limited
Color primaries: BT.709
Transfer characteristics: BT.709
Matrix coefficients: BT.709

Audio #1
ID: 2
Format: AC-3
Format/Info: Audio Coding 3
Mode extension: CM (complete main)
Format settings, Endianness: Big
Codec ID: A_AC3
Duration: 1 h 28 min
Bit rate mode: Constant
Bit rate: 192 kb/s
Channel(s): 2 channels
Channel positions: Front: L R
Sampling rate: 48.0 kHz
Frame rate: 31.250 FPS (1536 spf)
Bit depth: 16 bits
Compression mode: Lossy
Stream size: 122 MiB (3%)
Title: DUB (CPI Films)
Language: Russian
Default: Yes
Forced: No

Fishe, [09.11.20 21:22]
Audio #2
ID: 3
Format: AC-3
Format/Info: Audio Coding 3
Mode extension: CM (complete main)
Format settings, Endianness: Big
Codec ID: A_AC3
Duration: 1 h 28 min
Bit rate mode: Constant
Bit rate: 384 kb/s
Channel(s): 6 channels
Channel positions: Front: L C R, Side: L R, LFE
Sampling rate: 48.0 kHz
Frame rate: 31.250 FPS (1536 spf)
Bit depth: 16 bits
Compression mode: Lossy
Stream size: 244 MiB (6%)
Title: Original
Language: English
Default: No
Forced: No



Скриншоты:
[+] Всего файлов в раздаче - 1:
Semeyka.Bigfutov.2020.1080p.WEB-DL.ELEKTRI4KA.UNIONGANG.mkv3.74 GB

Похожие раздачи по запросу - семейка:
2020-11-10 U Семейка Бигфутов / Bigfoot Family (2020) WEB-DLRip от Twister & ExKinoRay | Line 1.46 GB ↑ 89 ↓ 39
2020-04-12 U Семейка Аддамс / The Addams Family (2019) BDRip от MegaPeer | Лицензия 1.46 GB ↑ 172 ↓ 39
2020-01-14 U Семейка Аддамс / The Addams Family (2019) BDRip | А 1.46 GB ↑ 136 ↓ 16
2020-01-11 U Семейка Аддамс / The Addams Family (2019) BDRip от MegaPeer | D 1.46 GB ↑ 6203 ↓ 208

Отзывы
Зарегистрируйтесь чтобы добавить комментарий.
Загрузите программу
  uTorrent.exe
Обратная связь
Copyleft ©