↑↓torrent.by
Поиск
Логин: Регистрация
Пароль: Восстановить пароль

Кто не спрятался / The Rental (2020) WEB-DL 1080p от селезень | iTunes

Скачать kto-ne-spryatalsya-the-rental-2020-web-dl-1080p-ot-selezen-itunes.torrent
U Магнитная ссылка Размер: 4.97 GB Раздают: 213 Качают: 111 Добавлен: 2020-11-13 14:30:44
Кто не спрятался / The Rental (2020) WEB-DL 1080p от селезень | iTunes

Название: Кто не спрятался
Оригинальное название: The Rental
Год выхода: 2020
Жанр: Ужасы, триллер
Режиссер: Дэйв Франко
В ролях: Дэн Стивенс, Элисон Бри, Тоби Хасс, Шейла Ванд, Джереми Аллен Уайт, Конни Веллман, Чанк

О фильме: Вы снимали жилье через Airbnb? Смотрели красивые картинки на сайте и представляли идеальный отпуск? Две молодые пары решили оторваться на берегу океана и арендовали роскошную виллу. Они не знали, что в каждой комнате установлены камеры, и за ними пристально следят. Их маленькие секреты, а вместе с ними и тайна всего дома станут явью, но это лишь начало игры. Кто не спрятался…

Страна: США
Студия: Black Bear Pictures
Продолжительность: 01:28:17
Перевод: Дублированный | iTunes

Качество: WEB-DL 1080p
Видео: MPEG-4 AVC, 1920x800, 7031 Кbit/s, 23.976 fps
Аудио #01: 48 kHz, AC3, 5.1, 384 Kbps | iTunes | RUS |
Аудио #02: 48 kHz, E-AC3, 5.1, 640 Kbps | Оригинал | ENG |
Субтитры: Английские

Релиз: Присоединяйся к:


[+] MI
General
Unique ID                   : 319768837139554325862835207481218201392 (0xF0913CE53CF1E4A70E9F5B0C559A7730)
Complete name               : D:Video111The.Rental.2020.WEB-DL.1080p.seleZen.mkv
Format                      : Matroska
Format version              : Version 4
File size                   : 4.97 GiB
Duration                    : 1 h 28 min
Overall bit rate            : 8 051 kb/s
Movie name                  : The Rental 2020 from seleZen
Encoded date                : UTC 2020-11-12 22:22:01
Writing application         : mkvmerge v40.0.0 ('Old Town Road + Pony') 64-bit
Writing library             : libebml v1.3.9 + libmatroska v1.5.2

Video
ID                          : 1
Format                      : AVC
Format/Info                 : Advanced Video Codec
Format profile              : High@L4
Format settings             : CABAC / 4 Ref Frames
Format settings, CABAC      : Yes
Format settings, Reference  : 4 frames
Codec ID                    : V_MPEG4/ISO/AVC
Duration                    : 1 h 28 min
Bit rate mode               : Constant
Bit rate                    : 7 031 kb/s
Nominal bit rate            : 10 000 kb/s
Width                       : 1 920 pixels
Height                      : 800 pixels
Display aspect ratio        : 2.40:1
Frame rate mode             : Constant
Frame rate                  : 23.976 (24000/1001) FPS
Color space                 : YUV
Chroma subsampling          : 4:2:0
Bit depth                   : 8 bits
Scan type                   : Progressive
Bits/(Pixel*Frame)          : 0.191
Stream size                 : 4.34 GiB (87%)
Language                    : English
Default                     : Yes
Forced                      : No
Color range                 : Limited
Color primaries             : BT.709
Transfer characteristics    : BT.709
Matrix coefficients         : BT.709

Audio #1
ID                          : 2
Format                      : AC-3
Format/Info                 : Audio Coding 3
Commercial name             : Dolby Digital
Codec ID                    : A_AC3
Duration                    : 1 h 28 min
Bit rate mode               : Constant
Bit rate                    : 384 kb/s
Channel(s)                  : 6 channels
Channel layout              : L R C LFE Ls Rs
Sampling rate               : 48.0 kHz
Frame rate                  : 31.250 FPS (1536 SPF)
Compression mode            : Lossy
Stream size                 : 243 MiB (5%)
Title                       : iTunes
Language                    : Russian
Service kind                : Complete Main
Default                     : Yes
Forced                      : Yes

Audio #2
ID                          : 3
Format                      : E-AC-3
Format/Info                 : Enhanced AC-3
Commercial name             : Dolby Digital Plus
Codec ID                    : A_EAC3
Duration                    : 1 h 28 min
Bit rate mode               : Constant
Bit rate                    : 640 kb/s
Channel(s)                  : 6 channels
Channel layout              : L R C LFE Ls Rs
Sampling rate               : 48.0 kHz
Frame rate                  : 31.250 FPS (1536 SPF)
Compression mode            : Lossy
Stream size                 : 404 MiB (8%)
Title                       : Original
Language                    : English
Service kind                : Complete Main
Default                     : No
Forced                      : No

Text #1
ID                          : 4
Format                      : UTF-8
Codec ID                    : S_TEXT/UTF8
Codec ID/Info               : UTF-8 Plain Text
Duration                    : 1 h 21 min
Bit rate                    : 48 b/s
Count of elements           : 1132
Stream size                 : 28.9 KiB (0%)
Title                       : Full
Language                    : English
Default                     : No
Forced                      : No

Text #2
ID                          : 5
Format                      : UTF-8
Codec ID                    : S_TEXT/UTF8
Codec ID/Info               : UTF-8 Plain Text
Duration                    : 1 h 23 min
Bit rate                    : 49 b/s
Count of elements           : 1216
Stream size                 : 30.2 KiB (0%)
Title                       : SDH
Language                    : English
Default                     : No
Forced                      : No



Скриншоты:
[+] Всего файлов в раздаче - 1:
The.Rental.2020.WEB-DL.1080p.seleZen.mkv4.97 GB

Похожие раздачи по запросу - спрятался:
2020-11-21 U Кто не спрятался / The Rental (2020) BDRip 720p от селезень | iTunes 3.20 GB ↑ 99 ↓ 7
2020-11-13 U Кто не спрятался / The Rental (2020) HDRip от MegaPeer | iTunes 1.46 GB ↑ 349 ↓ 83

Отзывы
Зарегистрируйтесь чтобы добавить комментарий.
Загрузите программу
  uTorrent.exe
Обратная связь
Copyleft ©