↑↓torrent.by
Поиск
Логин: Регистрация
Пароль: Восстановить пароль

Взрыв [01-16 из 16] (2018) WEBRip от GeneralFilm

Скачать vzryv-01-16-iz-2018-webrip-ot-generalfilm.torrent
U Магнитная ссылка Размер: 8.71 GB Раздают: 188 Качают: 133 Добавлен: 2020-11-13 14:31:37
Взрыв [01-16 из 16] (2018) WEBRip от GeneralFilm

Оригинальное название: Взрыв
Год выпуска: 2018
Жанр:  Драма, криминал
Выпущено: Россия, «LEGIO FELIX»
Режиссер: Андрей Мармонтов
В ролях: Дмитрий Чеботарёв, Нина Гогаева, Владислав Павлов, Екатерина Симаходская, Сергей Жарков, Алёна Ковалёва, Егор Клинаев, Алина Бабак, Алексей Лукин, Алексей Матошин, Артём Ешкин, Мария Ульянова, Анна Шкиль, Александр Сергеев (IV), Иван Куколев, Надежда Иванко

О фильме: Москва. Наши дни. Простой, знакомый всем спальный район. Подъезд самой обыкновенной пятиэтажки. Некоторые из жильцов знакомы друг с другом, другие просто здороваются при встрече, а кто-то даже и не запоминает лиц своих соседей. Неожиданно все они становятся объединены ужасной трагедией: их подъезд взрывается, превращаясь в кучу дымящихся обломков. В один миг эти люди теряют всё: близких и родственников, крышу над головой, имущество. Одиночество, безысходность, пороки современного общества начинают затягивать их в свои сети. Смогут ли они противостоять этому и начать новую жизнь или так и сгниют на дне? А главное – разобраться в истинных причинах случившегося.

Качество: WEBRip
Видео: XviD build 69, 720x384 (1.85:1), 25.000 fps, ~ 1400 Kbps (~ 0.202 bit/pixel)
Аудио: 48.0 kHz, MP3, 2/0 ch, 192 kbps
Продолжительность: 16 x ~ 00:48:00
Перевод: Не требуется [Русский]
Cубтитры: нет

Внимание! Присутствует ненормативная лексика

Релиз:


[+] MediaInfo
General
Complete name               : D:RazdachiVzryv.2018.WEBRip.GeneralFilme01.Vzryv.avi
Format                      : AVI
Format/Info                 : Audio Video Interleave
File size                   : 558 MiB
Duration                    : 48 min 51 s
Overall bit rate            : 1 596 kb/s
Writing application         : VirtualDubMod 1.5.10.3 | www.virtualdub-fr.org || (build 2550/release)
Writing library             : VirtualDubMod build 2550/release

Video
ID                          : 0
Format                      : MPEG-4 Visual
Format profile              : Advanced Simple@L5
Format settings             : BVOP1
Format settings, BVOP       : 1
Format settings, QPel       : No
Format settings, GMC        : No warppoints
Format settings, Matrix     : Default (H.263)
Codec ID                    : XVID
Codec ID/Hint               : XviD
Duration                    : 48 min 51 s
Bit rate                    : 1 394 kb/s
Width                       : 720 pixels
Height                      : 384 pixels
Display aspect ratio        : 1.85:1
Frame rate                  : 25.000 FPS
Color space                 : YUV
Chroma subsampling          : 4:2:0
Bit depth                   : 8 bits
Scan type                   : Progressive
Compression mode            : Lossy
Bits/(Pixel*Frame)          : 0.202
Stream size                 : 487 MiB (87%)
Writing library             : XviD 69

Audio
ID                          : 1
Format                      : MPEG Audio
Format version              : Version 1
Format profile              : Layer 3
Codec ID                    : 55
Codec ID/Hint               : MP3
Duration                    : 48 min 51 s
Bit rate mode               : Constant
Bit rate                    : 192 kb/s
Channel(s)                  : 2 channels
Sampling rate               : 48.0 kHz
Frame rate                  : 41.667 FPS (1152 SPF)
Compression mode            : Lossy
Stream size                 : 67.1 MiB (12%)
Alignment                   : Aligned on interleaves
Interleave, duration        : 40  ms (1.00 video frame)
Interleave, preload duratio : 504  ms
Writing library             : LAME3.99r
Encoding settings           : -m s -V 4 -q 2 -lowpass 18.6 -b 192



Скриншоты:
[+] Всего файлов в раздаче - 16:
e01.Vzryv.avi557.73 MB
e02.Vzryv.avi557.17 MB
e03.Vzryv.avi557.21 MB
e04.Vzryv.avi557.38 MB
e05.Vzryv.avi557.18 MB
e06.Vzryv.avi557.37 MB
e07.Vzryv.avi557.13 MB
e08.Vzryv.avi557.09 MB
e09.Vzryv.avi557.05 MB
e10.Vzryv.avi556.91 MB
e11.Vzryv.avi557.09 MB
e12.Vzryv.avi557.32 MB
e13.Vzryv.avi557.04 MB
e14.Vzryv.avi557.35 MB
e15.Vzryv.avi557.02 MB
e16.Vzryv.avi557.40 MB

Отзывы
Зарегистрируйтесь чтобы добавить комментарий.
Загрузите программу
  uTorrent.exe
Обратная связь
Copyleft ©