↑↓torrent.by
Поиск
Логин: Регистрация
Пароль: Восстановить пароль

Гномы в деле! / Die Heinzels - Rückkehr der Heinzelmännchen (2020) BDRip 1080p от селезень | iTunes

Скачать gnomy-v-dele-die-heinzels-r-ckkehr-der-heinzelm-nnchen-2020-bdrip-1080p-ot-selezen-itunes.torrent
U Магнитная ссылка Размер: 5.76 GB Раздают: 88 Качают: 52 Добавлен: 2020-11-15 17:02:08
Гномы в деле! / Die Heinzels - Rückkehr der Heinzelmännchen (2020) BDRip 1080p от селезень | iTunes

Название: Гномы в деле!
Оригинальное название: Die Heinzels - Rückkehr der Heinzelmännchen
Год выхода: 2020
Жанр: Фэнтези, боевик, комедия, семейный, мультфильм, полнометражный
Режиссер: Уте фон Мюнхов-Поль
В ролях: Йелла Хаазе, Луис Хофманн, Леон Сидел, Детлеф Бирштедт, Эльке Хайденрайх, Рольф Берг, Ранджа Боналана, Мария-Луиза Марьян, Билл Мокридж

О фильме: Кондитерская Тео вот-вот закроется. Всех клиентов переманил его главный конкурент Бруно, построивший рядом фабрику. Спасти Тео может только чудо. И оно случается, да не одно, а целых три! Прямо к нему домой заявляются три гнома, которые объясняют, что больше всего на свете хотели бы научиться печь. Недоверчивый Тео поначалу пытается прогнать маленький озорников, но не тут-то было. Ты их в дверь, а они в окно! Тео ничего не остается, как дать им шанс. Успеет ли Тео научить всему гномов, чтобы с их помощью отстоять кондитерскую?

Страна: Германия
Студия: Akkord Film Produktion GmbH, TOBIS Film, Zweites Deutsches Fernsehen
Продолжительность: 01:17:40
Перевод: Дублированный | iTunes

Качество: BDRip 1080p
Видео: MPEG-4 AVC, 1920x1036, 9647 Кbit/s, 23.976 fps
Аудио #01: 48 kHz, AC3, 5.1, 384 Kbps | iTunes | RUS |
Аудио #02: 48 kHz, AC3, 5.1, 640 Kbps | Оригинал | GER |
Субтитры: Английские

Релиз: Присоединяйся к:


[+] MI
General
Unique ID                   : 11520825825490392235250938728986457287 (0x8AAD4916EF5E2246A2A4E5F696C34C7)
Complete name               : D:Video111Die.Heinzels.Ruckkehr.der.Heinzelmannchen.BDRip.1080p.seleZen.mkv
Format                      : Matroska
Format version              : Version 4
File size                   : 5.76 GiB
Duration                    : 1 h 17 min
Overall bit rate            : 10.6 Mb/s
Movie name                  :  Die Heinzels - Rückkehr der Heinzelmännchen 2020 from seleZen
Encoded date                : UTC 2020-11-14 05:19:36
Writing application         : mkvmerge v40.0.0 ('Old Town Road + Pony') 64-bit
Writing library             : libebml v1.3.9 + libmatroska v1.5.2

Video
ID                          : 1
Format                      : AVC
Format/Info                 : Advanced Video Codec
Format profile              : High@L4.1
Format settings             : CABAC / 4 Ref Frames
Format settings, CABAC      : Yes
Format settings, Reference  : 4 frames
Codec ID                    : V_MPEG4/ISO/AVC
Duration                    : 1 h 17 min
Bit rate                    : 9 647 kb/s
Width                       : 1 920 pixels
Height                      : 1 036 pixels
Display aspect ratio        : 1.85:1
Frame rate mode             : Constant
Frame rate                  : 23.976 (24000/1001) FPS
Color space                 : YUV
Chroma subsampling          : 4:2:0
Bit depth                   : 8 bits
Scan type                   : Progressive
Bits/(Pixel*Frame)          : 0.202
Stream size                 : 5.21 GiB (90%)
Title                       : Encoded by seleZen
Writing library             : x264 core 157 r2969 d4099dd
Encoding settings           : cabac=1 / ref=4 / deblock=1:-2:-2 / analyse=0x3:0x113 / me=umh / subme=10 / psy=1 / psy_rd=1.00:0.00 / mixed_ref=1 / me_range=32 / chroma_me=1 / trellis=2 / 8x8dct=1 / cqm=0 / deadzone=21,11 / fast_pskip=0 / chroma_qp_offset=-2 / threads=24 / lookahead_threads=4 / sliced_threads=0 / nr=0 / decimate=0 / interlaced=0 / bluray_compat=0 / constrained_intra=0 / bframes=9 / b_pyramid=2 / b_adapt=2 / b_bias=0 / direct=3 / weightb=1 / open_gop=0 / weightp=2 / keyint=230 / keyint_min=23 / scenecut=40 / intra_refresh=0 / rc_lookahead=40 / rc=2pass / mbtree=0 / bitrate=9647 / ratetol=1.0 / qcomp=0.60 / qpmin=0 / qpmax=51 / qpstep=4 / cplxblur=20.0 / qblur=0.5 / vbv_maxrate=50000 / vbv_bufsize=62000 / nal_hrd=none / filler=0 / ip_ratio=1.40 / pb_ratio=1.30 / aq=3:0.80
Language                    : German
Default                     : Yes
Forced                      : No

Audio #1
ID                          : 2
Format                      : AC-3
Format/Info                 : Audio Coding 3
Commercial name             : Dolby Digital
Codec ID                    : A_AC3
Duration                    : 1 h 17 min
Bit rate mode               : Constant
Bit rate                    : 384 kb/s
Channel(s)                  : 6 channels
Channel layout              : L R C LFE Ls Rs
Sampling rate               : 48.0 kHz
Frame rate                  : 31.250 FPS (1536 SPF)
Compression mode            : Lossy
Stream size                 : 214 MiB (4%)
Title                       : iTunes
Language                    : Russian
Service kind                : Complete Main
Default                     : Yes
Forced                      : Yes

Audio #2
ID                          : 3
Format                      : AC-3
Format/Info                 : Audio Coding 3
Commercial name             : Dolby Digital
Codec ID                    : A_AC3
Duration                    : 1 h 17 min
Bit rate mode               : Constant
Bit rate                    : 640 kb/s
Channel(s)                  : 6 channels
Channel layout              : L R C LFE Ls Rs
Sampling rate               : 48.0 kHz
Frame rate                  : 31.250 FPS (1536 SPF)
Compression mode            : Lossy
Stream size                 : 356 MiB (6%)
Title                       : Original
Language                    : German
Service kind                : Complete Main
Default                     : No
Forced                      : No

Text
ID                          : 4
Format                      : UTF-8
Codec ID                    : S_TEXT/UTF8
Codec ID/Info               : UTF-8 Plain Text
Duration                    : 1 h 12 min
Bit rate                    : 52 b/s
Count of elements           : 1015
Stream size                 : 27.5 KiB (0%)
Language                    : English
Default                     : No
Forced                      : No

Menu
00:00:00.000                : :Kapitel 01
00:07:29.866                : :Kapitel 02
00:13:31.227                : :Kapitel 03
00:19:46.102                : :Kapitel 04
00:26:17.034                : :Kapitel 05
00:32:40.667                : :Kapitel 06
00:37:15.942                : :Kapitel 07
00:45:30.895                : :Kapitel 08
00:52:58.092                : :Kapitel 09
00:59:34.279                : :Kapitel 10
01:06:44.792                : :Kapitel 11
01:12:09.575                : :Kapitel 12



Скриншоты:
[+] Всего файлов в раздаче - 1:
Die.Heinzels.Ruckkehr.der.Heinzelmannchen.BDRip.1080p.seleZen.mkv5.76 GB

Похожие раздачи по запросу - гномы:
2020-11-14 U Гномы в деле! / Die Heinzels - Rückkehr der Heinzelmännchen (2019) BDRip от MegaPeer | iTunes 1.37 GB ↑ 62 ↓ 31

Отзывы
Зарегистрируйтесь чтобы добавить комментарий.
Загрузите программу
  uTorrent.exe
Обратная связь
Copyleft ©