↑↓torrent.by
Поиск
Логин: Регистрация
Пароль: Восстановить пароль

Стрельцов (2020) WEB-DL 1080p от ELEKTRI4KА | iTunes

Скачать strelcov-2020-web-dl-1080p-ot-elektri4ka-itunes.torrent
U Магнитная ссылка Размер: 3.34 GB Раздают: 1794 Качают: 912 Добавлен: 2020-11-16 16:33:21
Стрельцов (2020) WEB-DL 1080p от ELEKTRI4KА | iTunes

Название: Стрельцов
Год выхода: 2020
Жанр: Мелодрама, спорт
Режиссер: Илья Учитель
В ролях: Александр Петров (III), Александр Яценко, Виктор Добронравов, Надежда Маркина, Ефим Петрунин, Виталий Хаев, Стася Милославская, Павел Усачев, Ася Домская, Екатерина Агеева, Митя Чеблаков, Максим Емельянов, Алексей Морозов, Владимир Большов, Василий Мищенко, Алексей Колган

О фильме: К 20 годам у него есть все, о чем только можно мечтать: талант, деньги, слава, любовь. Он — Эдуард Стрельцов, восходящая звезда советского футбола и кумир миллионов. Вся страна с замиранием сердца ждет побед советской сборной на предстоящем Чемпионате мира в Швеции и дуэли Стрельцова с Пеле. Но за два дня до отъезда команды недоброжелатели ломают судьбу спортсмена.Когда дорога в футбол, казалось бы, навсегда отрезана, Стрельцов должен совершить невозможное, чтобы вернуться и доказать всем, что он — чемпион. Великий спортсмен, заслуживший настоящую народную любовь.

Выпущено: Россия / Телеканал «РОССИЯ 1», Централ Партнершип, тТПО «Рок», Студия Тритэ
Продолжительность: 01:37:01
Озвучивание: Оригинальное | iTunes

Файл
Формат: MKV (x264)
Качество: WEB-DL 1080p
Видео: MPEG-4 AVC, 4540 Kb/s, 1920x806
Аудио: Russian: 48 kHz, AC3 Dolby Digital, 3/2 (L, C, R, l, r) + LFE ch, ~384 Kbps
Субтитры: Нет
Дополнительно: Сохранены оригинальные чаптеры.

Релиз: &


[+] MediaInfo:
Complete name: Streltsov.2020.WEB-DL.1080p.ELEKTRI4KA.UNIONGANG.mkv
Format                                   : Matroska
Format version                           : Version 4 / Version 2
File size                                : 3.34 GiB
Duration                                 : 1 h 37 min
Overall bit rate                         : 4 926 kb/s
Movie name                               : .ELEKTRI4KA.UNIONGANG.
Encoded date                             : UTC 2020-11-15 19:56:51
Writing application                      : mkvmerge v8.3.0 ('Over the Horizon') 64bit
Writing library                          : libebml v1.3.1 + libmatroska v1.4.2

Video
ID                                       : 1
Format                                   : AVC
Format/Info                              : Advanced Video Codec
Format profile                           : High@L4
Format settings, CABAC                   : Yes
Format settings, Reference frames        : 5 frames
Codec ID                                 : V_MPEG4/ISO/AVC
Duration                                 : 1 h 37 min
Bit rate                                 : 4 540 kb/s
Width                                    : 1 920 pixels
Height                                   : 806 pixels
Display aspect ratio                     : 2.40:1
Frame rate mode                          : Constant
Frame rate                               : 25.000 FPS
Color space                              : YUV
Chroma subsampling                       : 4:2:0
Bit depth                                : 8 bits
Scan type                                : Progressive
Bits/(Pixel*Frame)                       : 0.117
Stream size                              : 3.08 GiB (92%)
Title                                    : .ELEKTRI4KA.UNIONGANG.
Language                                 : English
Default                                  : Yes
Forced                                   : No
Color range                              : Limited
Color primaries                          : BT.709
Transfer characteristics                 : BT.709
Matrix coefficients                      : BT.709

Audio
ID                                       : 2
Format                                   : AC-3
Format/Info                              : Audio Coding 3
Mode extension                           : CM (complete main)
Format settings, Endianness              : Big
Codec ID                                 : A_AC3
Duration                                 : 1 h 37 min
Bit rate mode                            : Constant
Bit rate                                 : 384 kb/s
Channel(s)                               : 6 channels
Channel positions                        : Front: L C R, Side: L R, LFE
Sampling rate                            : 48.0 kHz
Frame rate                               : 31.250 FPS (1536 spf)
Bit depth                                : 16 bits
Compression mode                         : Lossy
Stream size                              : 267 MiB (8%)
Title                                    : Original (iTunes)
Language                                 : Russian
Default                                  : Yes
Forced                                   : No

Menu
00:00:00.000                             : en:Глава 1
00:07:47.800                             : en:Глава 2
00:16:18.880                             : en:Глава 3
00:25:27.040                             : en:Глава 4
00:33:35.360                             : en:Глава 5
00:42:14.760                             : en:Глава 6
00:51:23.560                             : en:Глава 7
00:59:36.160                             : en:Глава 8
01:08:39.840                             : en:Глава 9
01:16:53.240                             : en:Глава 10
01:25:01.160                             : en:Глава 11



Скриншоты:
[+] Всего файлов в раздаче - 1:
Streltsov.2020.WEB-DL.1080p.ELEKTRI4KA.UNIONGANG.mkv3.34 GB

Показать еще раздачи по запросу стрельцов:
2020-11-18 U Стрельцов (2020) WEB-DLRip от GeneralFilm | iTunes 744.85 MB ↑ 107 ↓ 23
2020-11-18 U Стрельцов (2020) WEB-DLRip-AVC от Files-х | iTunes 1.46 GB ↑ 95 ↓ 31
2020-11-17 U Стрельцов (2020) WEB-DLRip 720p от ExKinoRay | iTunes 2.59 GB ↑ 67 ↓ 74
2020-11-17 U Стрельцов (2020) WEB-DLRip от Generalfilm | КПК | iTunes 368.96 MB ↑ 52 ↓ 9
2020-11-17 U Стрельцов (2020) WEB-DLRip-AVC от MegaPeer | iTunes 1.45 GB ↑ 107 ↓ 54
2020-11-16 U Стрельцов (2020) WEB-DLRip-AVC | iTunes 742.77 MB ↑ 126 ↓ 54
2020-11-16 U Стрельцов (2020) WEB-DLRip от ELEKTRI4KА | iTunes 1.46 GB ↑ 1559 ↓ 613

Отзывы
Зарегистрируйтесь чтобы добавить комментарий.
Загрузите программу
  uTorrent.exe
Обратная связь
Copyleft ©