↑↓torrent.by
Поиск
Логин: Регистрация
Пароль: Восстановить пароль

Стрельцов (2020) WEB-DLRip-AVC | iTunes

Скачать strelcov-2020-web-dlrip-avc-itunes.torrent
U Магнитная ссылка Размер: 742.77 MB Раздают: 129 Качают: 54 Добавлен: 2020-11-16 21:03:13
Стрельцов (2020) WEB-DLRip-AVC | iTunes

Название: Стрельцов
Год выхода: 2020
Жанр:  Мелодрама, спорт
Режиссер: Илья Учитель
В ролях: Александр Петров (III), Александр Яценко, Виктор Добронравов, Надежда Маркина, Ефим Петрунин, Виталий Хаев, Стася Милославская, Павел Усачев, Ася Домская, Екатерина Агеева, Митя Чеблаков, Максим Емельянов, Алексей Морозов, Владимир Большов, Василий Мищенко, Алексей Колган

О фильме:
К 20 годам у него есть все, о чем только можно мечтать: талант, деньги, слава, любовь. Он — Эдуард Стрельцов, восходящая звезда советского футбола и кумир миллионов. Вся страна с замиранием сердца ждет побед советской сборной на предстоящем Чемпионате мира в Швеции и дуэли Стрельцова с Пеле. Но за два дня до отъезда команды недоброжелатели ломают судьбу спортсмена.Когда дорога в футбол, казалось бы, навсегда отрезана, Стрельцов должен совершить невозможное, чтобы вернуться и доказать всем, что он — чемпион. Великий спортсмен, заслуживший настоящую народную любовь.

Выпущено: Россия / Телеканал «РОССИЯ 1», Централ Партнершип, тТПО «Рок», Студия Тритэ
Продолжительность: 01:37:01
Озвучивание: Оригинальное | iTunes
Субтитры: Нет

Файл
Формат: Matroska
Качество: WEB-DLRip-AVC
Видео: 724x304 at 25.000 fps, x264@L4.1, ~1009 kbps, 0.183 bpp
Аудио: AAC, 2 ch, ~64 kbps - | Русский | -

***Релиз от: -=DoMiNo=-


[+] M/I
x264 [info]: frame I:1071  Avg QP:15.16  size: 32158
x264 [info]: frame P:38587 Avg QP:18.73  size: 10286
x264 [info]: frame B:105890 Avg QP:20.64  size:  2837

General
Format                      : Matroska
Format version              : Version 4
File size                   : 743 MiB
Duration                    : 1 h 37 min
Overall bit rate            : 1 070 kb/s
Movie name                  : Стрельцов.(2020).WEB-DLRip-AVC.[-=DoMiNo=-]
Encoded date                : UTC 2020-11-16 17:07:12
Writing application         : mkvmerge v8.3.0 ('Over the Horizon') 64bit
Writing library             : libebml v1.3.1 + libmatroska v1.4.2
Cover                       : Yes
Attachments                 : Cover.jpg / Cover 2.jpg

Video
ID                          : 1
Format                      : AVC
Format/Info                 : Advanced Video Codec
Format profile              : High@L4.1
Format settings             : CABAC / 12 Ref Frames
Format settings, CABAC      : Yes
Format settings, Reference  : 12 frames
Codec ID                    : V_MPEG4/ISO/AVC
Duration                    : 1 h 37 min
Bit rate                    : 1 009 kb/s
Width                       : 724 pixels
Height                      : 304 pixels
Display aspect ratio        : 2.40:1
Frame rate mode             : Constant
Frame rate                  : 25.000 FPS
Color space                 : YUV
Chroma subsampling          : 4:2:0
Bit depth                   : 8 bits
Scan type                   : Progressive
Bits/(Pixel*Frame)          : 0.183
Stream size                 : 698 MiB (94%)
Title                       : -=DoMiNo=-
Writing library             : x264 core 161 r3027 4121277
Encoding settings           : cabac=1 / ref=12 / deblock=1:-2:-1 / analyse=0x3:0x133 / me=umh / subme=10 / psy=1 / psy_rd=1.00:0.05 / mixed_ref=1 / me_range=32 / chroma_me=1 / trellis=2 / 8x8dct=1 / cqm=0 / deadzone=21,11 / fast_pskip=0 / chroma_qp_offset=-3 / threads=6 / lookahead_threads=1 / sliced_threads=0 / nr=0 / decimate=0 / interlaced=0 / bluray_compat=0 / constrained_intra=0 / bframes=10 / b_pyramid=2 / b_adapt=2 / b_bias=0 / direct=3 / weightb=1 / open_gop=0 / weightp=2 / keyint=250 / keyint_min=25 / scenecut=40 / intra_refresh=0 / rc=2pass / mbtree=0 / bitrate=1009 / ratetol=1.0 / qcomp=0.60 / qpmin=0 / qpmax=69 / qpstep=4 / cplxblur=20.0 / qblur=0.5 / ip_ratio=1.40 / pb_ratio=1.30 / aq=2:1.00
Language                    : Russian
Default                     : Yes
Forced                      : No
Color range                 : Limited
Color primaries             : BT.709
Transfer characteristics    : BT.709
Matrix coefficients         : BT.709

Audio
ID                          : 2
Format                      : AAC LC SBR
Format/Info                 : Advanced Audio Codec Low Complexity with Spectral Band Replication
Commercial name             : HE-AAC
Format settings             : Explicit
Codec ID                    : A_AAC-2
Duration                    : 1 h 37 min
Bit rate                    : 62.7 kb/s
Channel(s)                  : 2 channels
Channel layout              : L R
Sampling rate               : 48.0 kHz
Frame rate                  : 23.438 FPS (2048 SPF)
Compression mode            : Lossy
Stream size                 : 43.5 MiB (6%)
Language                    : Russian
Default                     : Yes
Forced                      : Yes

Menu
00:00:00.000                : :Глава 1
00:07:47.800                : :Глава 2
00:16:18.880                : :Глава 3
00:25:27.040                : :Глава 4
00:33:35.360                : :Глава 5
00:42:14.760                : :Глава 6
00:51:23.560                : :Глава 7
00:59:36.160                : :Глава 8
01:08:39.840                : :Глава 9
01:16:53.240                : :Глава 10
01:25:01.160                : :Глава 11



Скриншоты:
[+] Всего файлов в раздаче - 1:
Стрельцов.(2020).WEB-DLRip-AVC.[-=DoMiNo=-].mkv742.77 MB

Показать еще раздачи по запросу стрельцов:
2020-11-18 U Стрельцов (2020) WEB-DLRip от GeneralFilm | iTunes 744.85 MB ↑ 112 ↓ 23
2020-11-18 U Стрельцов (2020) WEB-DLRip-AVC от Files-х | iTunes 1.46 GB ↑ 97 ↓ 32
2020-11-17 U Стрельцов (2020) WEB-DLRip 720p от ExKinoRay | iTunes 2.59 GB ↑ 74 ↓ 74
2020-11-17 U Стрельцов (2020) WEB-DLRip от Generalfilm | КПК | iTunes 368.96 MB ↑ 52 ↓ 9
2020-11-17 U Стрельцов (2020) WEB-DLRip-AVC от MegaPeer | iTunes 1.45 GB ↑ 110 ↓ 54
2020-11-16 U Стрельцов (2020) WEB-DL 1080p от ELEKTRI4KА | iTunes 3.34 GB ↑ 1804 ↓ 915
2020-11-16 U Стрельцов (2020) WEB-DLRip от ELEKTRI4KА | iTunes 1.46 GB ↑ 1572 ↓ 614

Отзывы
Зарегистрируйтесь чтобы добавить комментарий.
Загрузите программу
  uTorrent.exe
Обратная связь
Copyleft ©