↑↓torrent.by
Поиск
Логин: Регистрация
Пароль: Восстановить пароль

Стрельцов (2020) WEB-DLRip-AVC от MegaPeer | iTunes

Скачать strelcov-2020-web-dlrip-avc-ot-megapeer-itunes.torrent
U Магнитная ссылка Размер: 1.45 GB Раздают: 104 Качают: 54 Добавлен: 2020-11-17 07:53:39
Стрельцов (2020) WEB-DLRip-AVC от MegaPeer | iTunes

Название: Стрельцов
Год выхода: 2020
Жанр: Мелодрама, спорт

Режиссер: Илья Учитель
В ролях: Александр Петров, Стася Милославская, Александр Яценко, Виталий Хаев, Виктор Добронравов, Ася Домская, Надежда Маркина, Алексей Морозов, Василий Мищенко, Алексей Колган

О фильме:
К 20 годам у него есть все, о чем только можно мечтать: талант, деньги, слава, любовь. Он — Эдуард Стрельцов, восходящая звезда советского футбола и кумир миллионов. Вся страна с замиранием сердца ждет побед советской сборной на предстоящем Чемпионате мира в Швеции и дуэли Стрельцова с Пеле. Но за два дня до отъезда команды недоброжелатели ломают судьбу спортсмена.

Когда дорога в футбол, казалось бы, навсегда отрезана, Стрельцов должен совершить невозможное, чтобы вернуться и доказать всем, что он — чемпион. Великий спортсмен, заслуживший настоящую народную любовь.

Страна: Россия
Студия: Телеканал «РОССИЯ 1», Централ Партнершип, ТПО «Рок», Студия Тритэ
Продолжительность: 01:37:02
Перевод: Не требуется | iTunes

Файл
Качество: WEB-DLRip-AVC
Формат: MKV
Кодек: MPEG-4 AVC
Видео: 1024x430 (2.40:1), 25 fps, MPEG-4 AVC, 1766 Кbps avg, 0.160 bit/pixel
Аудио: AC3, 48 kHz, 6 ch, ~384.00 kbps avg | русский | iTunes
Субтитры Отсутствуют

Релиз:


[+] Инфо-файл
Общее
Уникальный идентификатор                 : 193571737977665913839885538041879429147 (0x91A08F8723E7DC721CDB3D19B7AD801B)
Полное имя                               : Streltsov.2020.WEB-DRip.1.46Gb.Gb.x264.MegaPeer.mkv
Формат                                   : Matroska
Версия формата                           : Version 4
Размер файла                             : 1,45 Гбайт
Продолжительность                        : 1 ч. 37 м.
Общий поток                              : 2 145 Кбит/сек
Название фильма                          : .ELEKTRI4KA.UNIONGANG.
Дата кодирования                         : UTC 2020-11-16 21:06:40
Программа кодирования                    : mkvmerge v47.0.0 ('Black Flag') 64-bit
Библиотека кодирования                   : libebml v1.3.10 + libmatroska v1.5.2

Видео
Идентификатор                            : 1
Формат                                   : AVC
Формат/Информация                        : Advanced Video Codec
Профиль формата                          : High@L4.1
Настройки формата                        : CABAC / 11 Ref Frames
Параметр CABAC формата                   : Да
Параметр RefFrames формата               : 11 кадров
Идентификатор кодека                     : V_MPEG4/ISO/AVC
Продолжительность                        : 1 ч. 37 м.
Битрейт                                  : 1 766 Кбит/сек
Ширина                                   : 1 024 пикселя
Высота                                   : 430 пикселей
Соотношение сторон                       : 2,40:1
Режим частоты кадров                     : Постоянный
Частота кадров                           : 25,000 кадров/сек
Цветовое пространство                    : YUV
Субдискретизация насыщенности            : 4:2:0
Битовая глубина                          : 8 бит
Тип развёртки                            : Прогрессивная
Бит/(Пиксели*Кадры)                      : 0.160
Размер потока                            : 1,19 Гбайт (82%)
Заголовок                                : stillet@MegaPeer
Библиотека кодирования                   : x264 core 152 r2851bm ba24899
Настройки программы                      : cabac=1 / ref=11 / deblock=1:-2:-2 / analyse=0x3:0x113 / me=umh / subme=11 / psy=1 / psy_rd=1.00:0.15 / mixed_ref=1 / me_range=32 / chroma_me=1 / trellis=2 / 8x8dct=1 / cqm=0 / deadzone=21,11 / fast_pskip=0 / chroma_qp_offset=-3 / threads=8 / lookahead_threads=3 / sliced_threads=0 / nr=0 / decimate=0 / interlaced=0 / bluray_compat=0 / constrained_intra=0 / bframes=10 / b_pyramid=2 / b_adapt=2 / b_bias=0 / direct=3 / weightb=1 / open_gop=0 / weightp=2 / keyint=240 / keyint_min=24 / scenecut=40 / intra_refresh=0 / rc=2pass / mbtree=0 / bitrate=1766 / ratetol=1.0 / qcomp=0.60 / qpmin=0 / qpmax=69 / qpstep=4 / cplxblur=20.0 / qblur=0.5 / ip_ratio=1.40 / pb_ratio=1.30 / aq=1:1.00
Язык                                     : English
Default                                  : Да
Forced                                   : Нет

Аудио
Идентификатор                            : 2
Формат                                   : AC-3
Формат/Информация                        : Audio Coding 3
Коммерческое название                    : Dolby Digital
Идентификатор кодека                     : A_AC3
Продолжительность                        : 1 ч. 37 м.
Вид битрейта                             : Постоянный
Битрейт                                  : 384 Кбит/сек
Каналы                                   : 6 каналов
Channel layout                           : L R C LFE Ls Rs
Частота                                  : 48,0 КГц
Частота кадров                           : 31,250 кадров/сек (1536 SPF)
Метод сжатия                             : С потерями
Размер потока                            : 267 Мбайт (18%)
Заголовок                                : iTunes
Язык                                     : Russian
Service kind                             : Complete Main
Default                                  : Да
Forced                                   : Да

Меню
00:00:00.000                             : en:Глава 1
00:07:47.800                             : en:Глава 2
00:16:18.880                             : en:Глава 3
00:25:27.040                             : en:Глава 4
00:33:35.360                             : en:Глава 5
00:42:14.760                             : en:Глава 6
00:51:23.560                             : en:Глава 7
00:59:36.160                             : en:Глава 8
01:08:39.840                             : en:Глава 9
01:16:53.240                             : en:Глава 10
01:25:01.160                             : en:Глава 11




Скриншоты:
[+] Всего файлов в раздаче - 1:
Streltsov.2020.WEB-DRip.1.46Gb.Gb.x264.MegaPeer.mkv1.45 GB

Показать еще раздачи по запросу стрельцов:
2020-11-18 U Стрельцов (2020) WEB-DLRip от GeneralFilm | iTunes 744.85 MB ↑ 97 ↓ 22
2020-11-18 U Стрельцов (2020) WEB-DLRip-AVC от Files-х | iTunes 1.46 GB ↑ 94 ↓ 30
2020-11-17 U Стрельцов (2020) WEB-DLRip 720p от ExKinoRay | iTunes 2.59 GB ↑ 62 ↓ 73
2020-11-17 U Стрельцов (2020) WEB-DLRip от Generalfilm | КПК | iTunes 368.96 MB ↑ 52 ↓ 9
2020-11-16 U Стрельцов (2020) WEB-DLRip-AVC | iTunes 742.77 MB ↑ 122 ↓ 54
2020-11-16 U Стрельцов (2020) WEB-DL 1080p от ELEKTRI4KА | iTunes 3.34 GB ↑ 1784 ↓ 912
2020-11-16 U Стрельцов (2020) WEB-DLRip от ELEKTRI4KА | iTunes 1.46 GB ↑ 1548 ↓ 614

Отзывы
Зарегистрируйтесь чтобы добавить комментарий.
Загрузите программу
  uTorrent.exe
Обратная связь
Copyleft ©