↑↓torrent.by
Поиск
Логин: Регистрация
Пароль: Восстановить пароль

Кафе Мертвых Поэтов (2020) WEB-DLRip-AVC от Files-х

Скачать kafe-mertvyh-poetov-2020-web-dlrip-avc-ot-files-h.torrent
U Магнитная ссылка Размер: 2.17 GB Раздают: 106 Качают: 42 Добавлен: 2020-11-17 07:53:48
Кафе Мертвых Поэтов (2020) WEB-DLRip-AVC от Files-х

Оригинальное название: Кафе Мертвых Поэтов
Год выпуска: 2020
Жанр:  Драма
Выпущено: Россия
Режиссер: Владимир Малинко
В ролях: Николай Перминов, Ольга Остроумова-Гутшмидт, Вячеслав Гуливицкий, Павел Морозов, Дарья Погодина, Кристина Лихачёва

О фильме: Менеджер средних лет Николай недоволен своей жизнью, но никак не может добиться в ней успеха. В своих необычных снах герой получает всё, что захочет, но каждое утро ему приходится возвращаться к реальности… Сможет ли Николай кардинально поменять свою жизнь и превратить мечты в реальность?

Страна: Россия
Продолжительность: 02:30:08
Язык: Русский

Файл
Кодек: h.264
Качество: WEB-DLRip-AVC
Видео: MPEG-4 AVC, ~ 1879 Кбит/с, 1024x432, 24 кадр/с
Аудио: AC3, 2 ch, 192 Кбит/с
Субтитры: Нет

Релиз:
[+] MI

General
Unique ID                                : 232830405698447293844489716624386851985 (0xAF298149A2D393EF9A793BF076FE8491)
Complete name                            : F:Kafe Mertvih Poetov.(2020).WEB-DLRip.(AVC).by.Серый1779.Files-x.mkv
Format                                   : Matroska
Format version                           : Version 2
File size                                : 2.17 GiB
Duration                                 : 2 h 30 min
Overall bit rate                         : 2 071 kb/s
Encoded date                             : UTC 2020-11-16 15:11:41
Writing application                      : mkvmerge v7.8.0 ('River Man') 32bit built on Apr  3 2015 12:11:22
Writing library                          : libebml v1.3.1 + libmatroska v1.4.2

Video
ID                                       : 1
Format                                   : AVC
Format/Info                              : Advanced Video Codec
Format profile                           : High@L4.1
Format settings                          : CABAC / 9 Ref Frames
Format settings, CABAC                   : Yes
Format settings, RefFrames               : 9 frames
Codec ID                                 : V_MPEG4/ISO/AVC
Duration                                 : 2 h 30 min
Bit rate                                 : 1 879 kb/s
Width                                    : 1 024 pixels
Height                                   : 432 pixels
Display aspect ratio                     : 2.40:1
Frame rate mode                          : Constant
Frame rate                               : 24.000 FPS
Color space                              : YUV
Chroma subsampling                       : 4:2:0
Bit depth                                : 8 bits
Scan type                                : Progressive
Bits/(Pixel*Frame)                       : 0.177
Stream size                              : 1.93 GiB (89%)
Writing library                          : x264 core 146 r2538 121396c
Encoding settings                        : cabac=1 / ref=9 / deblock=1:-2:-1 / analyse=0x3:0x133 / me=umh / subme=9 / psy=1 / psy_rd=1.00:0.15 / mixed_ref=1 / me_range=32 / chroma_me=1 / trellis=2 / 8x8dct=1 / cqm=0 / deadzone=21,11 / fast_pskip=0 / chroma_qp_offset=-3 / threads=18 / lookahead_threads=3 / sliced_threads=0 / nr=0 / decimate=1 / interlaced=0 / bluray_compat=0 / constrained_intra=0 / bframes=9 / b_pyramid=2 / b_adapt=2 / b_bias=0 / direct=3 / weightb=1 / open_gop=0 / weightp=2 / keyint=250 / keyint_min=23 / scenecut=40 / intra_refresh=0 / rc=2pass / mbtree=0 / bitrate=1879 / ratetol=1.0 / qcomp=0.60 / qpmin=0 / qpmax=69 / qpstep=4 / cplxblur=20.0 / qblur=0.5 / ip_ratio=1.40 / pb_ratio=1.30 / aq=2:1.00
Default                                  : Yes
Forced                                   : No
Color range                              : Limited
Color primaries                          : BT.709
Transfer characteristics                 : BT.709
Matrix coefficients                      : BT.709

Audio
ID                                       : 2
Format                                   : AC-3
Format/Info                              : Audio Coding 3
Format settings, Endianness              : Big
Codec ID                                 : A_AC3
Duration                                 : 2 h 30 min
Bit rate mode                            : Constant
Bit rate                                 : 192 kb/s
Channel(s)                               : 2 channels
Channel positions                        : Front: L R
Sampling rate                            : 48.0 kHz
Frame rate                               : 31.250 FPS (1536 SPF)
Bit depth                                : 16 bits
Compression mode                         : Lossy
Stream size                              : 206 MiB (9%)
Service kind                             : Complete Main
Default                                  : Yes
Forced                                   : No




Скриншоты:
[+] Всего файлов в раздаче - 1:
Kafe Mertvih Poetov.(2020).WEB-DLRip.(AVC).by.Серый1779.Files-x.mkv2.17 GB

Похожие раздачи по запросу - кафе:
2020-11-16 U Кафе Мертвых Поэтов (2020) WEB-DLRip от Files-x 2.17 GB ↑ 131 ↓ 33
2020-11-16 U Кафе Мертвых Поэтов (2020) WEB-DL 1080p от ExKinoRay 5.55 GB ↑ 49 ↓ 41

Отзывы
Зарегистрируйтесь чтобы добавить комментарий.
Загрузите программу
  uTorrent.exe
Обратная связь
Copyleft ©