↑↓torrent.by
Поиск
Логин: Регистрация
Пароль: Восстановить пароль

Стрельцов (2020) WEB-DLRip 720p от ExKinoRay | iTunes

Скачать strelcov-2020-web-dlrip-720p-ot-exkinoray-itunes.torrent
U Магнитная ссылка Размер: 2.59 GB Раздают: 63 Качают: 73 Добавлен: 2020-11-17 07:54:26
Стрельцов (2020) WEB-DLRip 720p от ExKinoRay | iTunes

Название: Стрельцов
Год выхода: 2020
Жанр: Мелодрама, спорт
Режиссер: Илья Учитель
В ролях: Александр Петров, Александр Яценко, Виктор Добронравов, Надежда Маркина, Ефим Петрунин, Виталий Хаев, Стася Милославская, Василий Кортуков, Ася Домская, Максим Емельянов, Алексей Морозов, Владимир Большов, Василий Мищенко, Алексей Колган

Описание: К 20 годам у него есть все, о чем только можно мечтать: талант, деньги, слава, любовь. Он — Эдуард Стрельцов, восходящая звезда советского футбола и кумир миллионов. Вся страна с замиранием сердца ждет побед советской сборной на предстоящем Чемпионате мира в Швеции и дуэли Стрельцова с Пеле. Но за два дня до отъезда команды недоброжелатели ломают судьбу спортсмена.Когда дорога в футбол, казалось бы, навсегда отрезана, Стрельцов должен совершить невозможное, чтобы вернуться и доказать всем, что он — чемпион. Великий спортсмен, заслуживший настоящую народную любовь.

Выпущено: Россия, Телеканал «РОССИЯ 1», Централ Партнершип, ТПО «Рок», Студия Тритэ
Продолжительность: 01:37:01
Язык: Русский | iTunes

Формат: MKV
Качество: WEB-DLRip 720p
Видео: MPEG-4 AVC, 1280x538 (2.40:1), 3363 Kbps, 25.000 fps
Аудио: AC3, 48.0 KHz, 2.0 ch, 192 kbps | RUS |
Субтитры: Нет

Релиз:

Автор релиза:


[+] MediaInfo
General
Unique ID                                : 182717721821006693883259013389636115823 (0x89762736F862074287C6FBA24C609D6F)
Complete name                            : G:Streltsov.2020.WEB-DL.720p.ExKinoRay.mkv
Format                                   : Matroska
Format version                           : Version 2
File size                                : 2.59 GiB
Duration                                 : 1 h 37 min
Overall bit rate                         : 3 824 kb/s
Movie name                               : Стрельцов 2020 from ExKinoRay
Encoded date                             : UTC 2020-11-17 03:01:05
Writing application                      : mkvmerge v5.6.0 ('Kenya Kane') built on May 27 2012 16:44:04
Writing library                          : libebml v1.2.3 + libmatroska v1.3.0

Video
ID                                       : 1
Format                                   : AVC
Format/Info                              : Advanced Video Codec
Format profile                           : High@L4.1
Format settings, CABAC                   : Yes
Format settings, ReFrames                : 12 frames
Codec ID                                 : V_MPEG4/ISO/AVC
Duration                                 : 1 h 37 min
Bit rate                                 : 3 363 kb/s
Width                                    : 1 280 pixels
Height                                   : 538 pixels
Display aspect ratio                     : 2.40:1
Frame rate mode                          : Constant
Frame rate                               : 25.000 FPS
Color space                              : YUV
Chroma subsampling                       : 4:2:0
Bit depth                                : 8 bits
Scan type                                : Progressive
Bits/(Pixel*Frame)                       : 0.195
Stream size                              : 2.28 GiB (88%)
Title                                    : Enigma
Writing library                          : x264 core 152 r2851 ba24899
Encoding settings                        : cabac=1 / ref=12 / deblock=1:-2:-2 / analyse=0x3:0x113 / me=umh / subme=10 / psy=1 / psy_rd=1.05:0.08 / mixed_ref=1 / me_range=32 / chroma_me=1 / trellis=2 / 8x8dct=1 / cqm=0 / deadzone=21,11 / fast_pskip=0 / chroma_qp_offset=-3 / threads=12 / lookahead_threads=2 / sliced_threads=0 / nr=0 / decimate=0 / interlaced=0 / bluray_compat=0 / constrained_intra=0 / bframes=9 / b_pyramid=2 / b_adapt=2 / b_bias=0 / direct=1 / weightb=1 / open_gop=0 / weightp=2 / keyint=250 / keyint_min=25 / scenecut=40 / intra_refresh=0 / rc=crf / mbtree=0 / crf=17.5 / qcomp=0.60 / qpmin=0 / qpmax=51 / qpstep=4 / ip_ratio=1.40 / pb_ratio=1.30 / aq=1:1.00
Default                                  : Yes
Forced                                   : No
Color range                              : Limited
Color primaries                          : BT.709
Transfer characteristics                 : BT.709
Matrix coefficients                      : BT.709

Audio
ID                                       : 2
Format                                   : AC-3
Format/Info                              : Audio Coding 3
Mode extension                           : CM (complete main)
Format settings, Endianness              : Big
Codec ID                                 : A_AC3
Duration                                 : 1 h 37 min
Bit rate mode                            : Constant
Bit rate                                 : 384 kb/s
Channel(s)                               : 6 channels
Channel positions                        : Front: L C R, Side: L R, LFE
Sampling rate                            : 48.0 kHz
Frame rate                               : 31.250 FPS (1536 spf)
Compression mode                         : Lossy
Stream size                              : 267 MiB (10%)
Language                                 : Russian
Default                                  : Yes
Forced                                   : No

Menu
00:00:00.000                             : en:Глава 1
00:07:47.800                             : en:Глава 2
00:16:18.880                             : en:Глава 3
00:25:27.040                             : en:Глава 4
00:33:35.360                             : en:Глава 5
00:42:14.760                             : en:Глава 6
00:51:23.560                             : en:Глава 7
00:59:36.160                             : en:Глава 8
01:08:39.840                             : en:Глава 9
01:16:53.240                             : en:Глава 10
01:25:01.160                             : en:Глава 11




Скриншоты:
[+] Всего файлов в раздаче - 1:
Streltsov.2020.WEB-DL.720p.ExKinoRay.mkv2.59 GB

Показать еще раздачи по запросу стрельцов:
2020-11-18 U Стрельцов (2020) WEB-DLRip от GeneralFilm | iTunes 744.85 MB ↑ 96 ↓ 22
2020-11-18 U Стрельцов (2020) WEB-DLRip-AVC от Files-х | iTunes 1.46 GB ↑ 94 ↓ 30
2020-11-17 U Стрельцов (2020) WEB-DLRip от Generalfilm | КПК | iTunes 368.96 MB ↑ 52 ↓ 9
2020-11-17 U Стрельцов (2020) WEB-DLRip-AVC от MegaPeer | iTunes 1.45 GB ↑ 104 ↓ 54
2020-11-16 U Стрельцов (2020) WEB-DLRip-AVC | iTunes 742.77 MB ↑ 122 ↓ 54
2020-11-16 U Стрельцов (2020) WEB-DL 1080p от ELEKTRI4KА | iTunes 3.34 GB ↑ 1785 ↓ 912
2020-11-16 U Стрельцов (2020) WEB-DLRip от ELEKTRI4KА | iTunes 1.46 GB ↑ 1546 ↓ 614

Отзывы
Зарегистрируйтесь чтобы добавить комментарий.
Загрузите программу
  uTorrent.exe
Обратная связь
Copyleft ©