↑↓torrent.by
Поиск
Логин: Регистрация
Пароль: Восстановить пароль

Веселые ребята (1934) HDTVRip-AVC от ExKinoRay | Цветная версия

Скачать veselye-rebyata-1934-hdtvrip-avc-ot-exkinoray-cvetnaya-versiya.torrent
U Магнитная ссылка Размер: 1.54 GB Раздают: 37 Качают: 12 Добавлен: 2020-11-20 08:05:07
Веселые ребята (1934) HDTVRip-AVC от ExKinoRay | Цветная версия

Название: Веселые ребята
Год выхода: 1934
Жанр:  Комедия, мюзикл
Режиссер: Григорий Александров
В ролях: Леонид Утёсов, Любовь Орлова, Мария Стрелкова, Елена Тяпкина, Фёдор Курихин, Роберт Эрдман, Арнольд Арнольд, Эммануил Геллер, Александр Костомолоцкий, Орест Кандат, Николай Отто, Юрий Медведев

О фильме:
Классика советской комедии, забавная история о похождениях талантливого музыканта. Герой фильма — веселый парень Костя Потехин, пастух. По воле случая его приняли за модного гастролера из-за границы, и выступив в модном мюзик-холле Москвы, простодушный Костя произвел настоящий фурор. Он стал дирижером джазового оркестра, а домработница Анюта — певицей в нем. Команда Кости, талантливые и веселые ребята, готовятся к выступлению на сцене Большого театра, но вместо репетиций играют на похоронах.

Страна: СССР
Студия: Московский кинокомбинат
Продолжительность: 01:29:45
Язык: Русский

Файл
Формат: MKV
Качество: HDTVRip-AVC
Видео: MPEG-4 AVC, 692x576, 2000 Кбит/с
Аудио:  AC3, 2 ch, 448 Кбит/с
Субтитры: Русские


[+] MI
Общее
Уникальный идентификатор : 301038380321228123596370001198284306938 (0xE279E2134DB4CA9827005B7A1DE479FA)
Полное имя : D:MOVIESVesjelye.rebjata.1934.HDTVRip-AVC.ExKinoRay.mkv
Формат : Matroska
Версия формата : Version 4
Размер файла : 1,54 Гбайт
Продолжительность : 1 ч. 29 м.
Общий поток : 2 449 Кбит/сек
Дата кодирования : UTC 2020-11-19 06:05:30
Программа кодирования : mkvmerge v45.0.0 ('Heaven in Pennies') 64-bit
Библиотека кодирования : libebml v1.3.10 + libmatroska v1.5.2

Видео
Идентификатор : 1
Формат : AVC
Формат/Информация : Advanced Video Codec
Профиль формата : High@L4.1
Настройки формата : CABAC / 15 Ref Frames
Параметр CABAC формата : Да
Параметр RefFrames формата : 15 кадров
Идентификатор кодека : V_MPEG4/ISO/AVC
Продолжительность : 1 ч. 29 м.
Битрейт : 2 000 Кбит/сек
Ширина : 692 пикселя
Высота : 576 пикселей
Соотношение сторон : 1,201
Режим частоты кадров : Постоянный
Частота кадров : 25,000 кадров/сек
Цветовое пространство : YUV
Субдискретизация насыщенности : 4:2:0
Битовая глубина : 8 бит
Тип развёртки : Прогрессивная
Бит/(Пиксели*Кадры) : 0.201
Размер потока : 1,25 Гбайт (82%)
Библиотека кодирования : x264 core 160 r3000 33f9e14
Настройки программы : cabac=1 / ref=15 / deblock=1:-2:-2 / analyse=0x3:0x133 / me=umh / subme=10 / psy=1 / psy_rd=1.05:0.14 / mixed_ref=1 / me_range=32 / chroma_me=1 / trellis=2 / 8x8dct=1 / cqm=0 / deadzone=21,11 / fast_pskip=0 / chroma_qp_offset=-3 / threads=6 / lookahead_threads=1 / sliced_threads=0 / nr=0 / decimate=0 / interlaced=0 / bluray_compat=0 / constrained_intra=0 / bframes=11 / b_pyramid=2 / b_adapt=2 / b_bias=0 / direct=3 / weightb=1 / open_gop=0 / weightp=2 / keyint=250 / keyint_min=25 / scenecut=40 / intra_refresh=0 / rc=2pass / mbtree=0 / bitrate=2000 / ratetol=1.0 / qcomp=0.60 / qpmin=0 / qpmax=69 / qpstep=4 / cplxblur=20.0 / qblur=0.5 / ip_ratio=1.40 / pb_ratio=1.30 / aq=1:1.00
Язык : English
Default : Да
Forced : Нет
Цветовой диапазон : Limited
Основные цвета : BT.709
Характеристики трансфера : BT.709
Коэффициенты матрицы : BT.709

Аудио
Идентификатор : 2
Формат : AC-3
Формат/Информация : Audio Coding 3
Коммерческое название : Dolby Digital
Идентификатор кодека : A_AC3
Продолжительность : 1 ч. 29 м.
Вид битрейта : Постоянный
Битрейт : 448 Кбит/сек
Каналы : 2 канала
Channel layout : L R
Частота : 48,0 КГц
Частота кадров : 31,250 кадров/сек (1536 SPF)
Метод сжатия : С потерями
Задержка видео : 26 мс.
Размер потока : 288 Мбайт (18%)
Язык : Russian
Service kind : Complete Main
Default : Да
Forced : Нет

Текст
Идентификатор : 3
Формат : UTF-8
Идентификатор кодека : S_TEXT/UTF8
Идентификатор кодека/Информация : UTF-8 Plain Text
Продолжительность : 1 ч. 27 м.
Битрейт : 46 бит/сек
Count of elements : 777
Размер потока : 30,1 Кбайт (0%)
Язык : Russian
Default : Нет
Forced : Нет



Скриншоты:
[+] Всего файлов в раздаче - 1:
Vesjelye.rebjata.1934.HDTVRip-AVC.ExKinoRay.mkv1.54 GB

Похожие раздачи по запросу - веселые:
2020-11-16 U Веселые гастроли на Черном море (2019) WEB-DL 1080p | iTunes 2.80 GB ↑ 53 ↓ 14
2020-08-11 U Веселые гастроли на Черном море (2019) WEB-DLRip-AVC от ExKinoRay 744.96 MB ↑ 68 ↓ 18
2020-08-09 U Веселые гастроли на Черном море (2019) WEB-DLRip от Portablius 741.51 MB ↑ 148 ↓ 20
2020-08-09 U Веселые гастроли на Черном море (2019) WEB-DLRip от ExKinoRay 1.09 GB ↑ 387 ↓ 56
2020-08-09 U Веселые гастроли на Черном море (2019) WEB-DL 720p от ExKinoRay 1.46 GB ↑ 260 ↓ 105
2020-05-31 U Веселые мелодии: Мультфильмы / Looney Tunes: Cartoons [S01] (2020) WEBRip от NewComers | P 1.65 GB ↑ 242 ↓ 22

Отзывы
Зарегистрируйтесь чтобы добавить комментарий.
Загрузите программу
  uTorrent.exe
Обратная связь
Copyleft ©