↑↓torrent.by
Поиск
Логин: Регистрация
Пароль: Восстановить пароль

Новые мутанты / Люди Икс: Новые мутанты / The New Mutants (2020) UHD BDRip-HEVC 2160p | 4K | HDR | iTunes

Скачать novye-mutanty-lyudi-iks-the-new-mutants-2020-uhd-bdrip-hevc-2160p-4k-hdr-itunes.torrent
U Магнитная ссылка Размер: 17.10 GB Раздают: 63 Качают: 35 Добавлен: 2020-11-20 14:34:55
Новые мутанты / Люди Икс: Новые мутанты / The New Mutants (2020) UHD BDRip-HEVC 2160p | 4K | HDR | iTunes

Название: Новые мутанты
Оригинальное название: The New Mutants
Год выхода: 2020
Жанр: ужасы, фантастика, боевик

Режиссер: Джош Бун

В ролях: Блю Хант, Алиси Брага. Мэйси Уильямс, Аня Тейлор-Джой, Чарли Хитон, Генри Зага, Адам Бич, Томас Ки, Колби Ганнетт, Хэппи Андерсон

О фильме:
После нашествия на её резервацию загадочного торнадо и гибели отца Дэниель Мунстар приходит в себя связанной на больничной койке. Доктор Рейес сообщает девушке, что она - единственная выжившая, и теперь вместе с четырьмя подростками находится в специализированном учреждении, где их изучают и учат контролировать свои сверхспособности. Вскоре Дэни выясняет, что покинуть огороженную силовым полем территорию невозможно, а ребят начинают преследовать кажущиеся очень реальными кошмары.

Страна: США
Продолжительность: 01:34:04
Перевод: Профессиональный (полное дублирование) iTunes

Файл
Кодек: H.265
Качество: BDRip-HEVC 2160p
Видео: MPEG-H HEVC, HDR, 3840x2076 (1.85:1), 23.976 fps, 24.8 Mb/s, 10 Bit
Аудио 1: AC3, 48.0 kHz, 6 ch, 384 kb/s | [DUB - iTunes] RUS
Аудио 2: AC3, 48.0 kHz, 2 ch, 192 kb/s | [DUB - Новий канал] UKR
Аудио 3: AC3, 48.0 kHz, 6 ch, 640 kb/s | Оригинал | ENG
Субтитры: Русские (forced, full), украинские (forced, full), английские (full, SDH)

Семпл


[+] MI
General
Unique ID                                : 251259754801550003674059246359058401879 (0xBD06DE59E4CDAB27B0A6DB6889114A57)
Complete name                            : The.New.Mutants.(2020).BDRip.2160p.HDR.mkv
Format                                   : Matroska
Format version                           : Version 4
File size                                : 17.1 GiB
Duration                                 : 1 h 34 min
Overall bit rate                         : 26.0 Mb/s
Encoded date                             : UTC 2020-11-19 18:17:35
Writing application                      : mkvmerge v8.3.0 ('Over the Horizon') 64bit
Writing library                          : libebml v1.3.1 + libmatroska v1.4.2

Video
ID                                       : 1
Format                                   : HEVC
Format/Info                              : High Efficiency Video Coding
Commercial name                          : HDR10
Format profile                           : Main 10@L5.1@High
Codec ID                                 : V_MPEGH/ISO/HEVC
Duration                                 : 1 h 34 min
Bit rate                                 : 24.8 Mb/s
Width                                    : 3 840 pixels
Height                                   : 2 076 pixels
Display aspect ratio                     : 1.85:1
Frame rate mode                          : Constant
Frame rate                               : 23.976 (24000/1001) FPS
Color space                              : YUV
Chroma subsampling                       : 4:2:0 (Type 2)
Bit depth                                : 10 bits
Bits/(Pixel*Frame)                       : 0.130
Stream size                              : 16.3 GiB (95%)
Writing library                          : x265 3.0_Au+10-74a8672ea4f7:[Windows][GCC 8.2.1][64 bit] 10bit
Encoding settings                        : cpuid=1111039 / frame-threads=6 / numa-pools=40 / wpp / no-pmode / no-pme / no-psnr / no-ssim / log-level=2 / input-csp=1 / input-res=3840x2076 / interlace=0 / total-frames=0 / level-idc=51 / high-tier=1 / uhd-bd=0 / ref=3 / no-allow-non-conformance / repeat-headers / annexb / aud / hrd / info / hash=0 / no-temporal-layers / no-open-gop / min-keyint=1 / keyint=24 / gop-lookahead=0 / bframes=4 / b-adapt=2 / b-pyramid / bframe-bias=0 / rc-lookahead=25 / lookahead-slices=4 / scenecut=40 / radl=0 / no-splice / no-intra-refresh / ctu=64 / min-cu-size=8 / no-rect / no-amp / max-tu-size=32 / tu-inter-depth=1 / tu-intra-depth=1 / limit-tu=0 / rdoq-level=0 / dynamic-rd=0.00 / no-ssim-rd / signhide / no-tskip / nr-intra=0 / nr-inter=0 / no-constrained-intra / strong-intra-smoothing / max-merge=2 / limit-refs=3 / no-limit-modes / me=1 / subme=2 / merange=57 / temporal-mvp / weightp / no-weightb / no-analyze-src-pics / deblock=0:0 / no-sao / no-sao-non-deblock / rd=3 / no-early-skip / rskip / no-fast-intra / no-tskip-fast / no-cu-lossless / no-b-intra / no-splitrd-skip / rdpenalty=0 / psy-rd=2.00 / psy-rdoq=0.00 / no-rd-refine / no-lossless / cbqpoffs=0 / crqpoffs=0 / rc=crf / crf=14.0 / qcomp=0.60 / qpstep=4 / stats-write=0 / stats-read=0 / vbv-maxrate=160000 / vbv-bufsize=160000 / vbv-init=0.9 / crf-max=0.0 / crf-min=0.0 / ipratio=1.40 / pbratio=1.30 / aq-mode=1 / aq-strength=1.00 / cutree / zone-count=0 / no-strict-cbr / qg-size=32 / no-rc-grain / qpmax=69 / qpmin=0 / no-const-vbv / sar=1 / overscan=0 / videoformat=5 / range=0 / colorprim=9 / transfer=16 / colormatrix=9 / chromaloc=1 / chromaloc-top=2 / chromaloc-bottom=2 / display-window=0 / master-display=G(13250,34500)B(7500,3000)R(34000,16000)WP(15635,16450)L(10000000,50) / max-cll=0,0 / min-luma=0 / max-luma=1023 / log2-max-poc-lsb=8 / vui-timing-info / vui-hrd-info / slices=1 / opt-qp-pps / opt-ref-list-length-pps / no-multi-pass-opt-rps / scenecut-bias=0.05 / no-opt-cu-delta-qp / no-aq-motion / hdr / hdr-opt / no-dhdr10-opt / no-idr-recovery-sei / analysis-reuse-level=5 / scale-factor=0 / refine-intra=0 / refine-inter=0 / refine-mv=0 / refine-ctu-distortion=0 / no-limit-sao / ctu-info=0 / no-lowpass-dct / refine-analysis-type=30 / copy-pic=1 / max-ausize-factor=1.0 / no-dynamic-refine / no-single-sei / no-hevc-aq / no-svt / qp-adaptation-range=1.00
Default                                  : Yes
Forced                                   : No
Color range                              : Limited
Color primaries                          : BT.2020
Transfer characteristics                 : PQ
Matrix coefficients                      : BT.2020 non-constant
Mastering display color primaries        : Display P3
Mastering display luminance              : min: 0.0050 cd/m2, max: 1000 cd/m2

Audio #1
ID                                       : 2
Format                                   : AC-3
Format/Info                              : Audio Coding 3
Commercial name                          : Dolby Digital
Codec ID                                 : A_AC3
Duration                                 : 1 h 34 min
Bit rate mode                            : Constant
Bit rate                                 : 384 kb/s
Channel(s)                               : 6 channels
Channel layout                           : L R C LFE Ls Rs
Sampling rate                            : 48.0 kHz
Frame rate                               : 31.250 FPS (1536 SPF)
Bit depth                                : 16 bits
Compression mode                         : Lossy
Stream size                              : 258 MiB (1%)
Title                                    : DUB [iTunes]
Language                                 : Russian
Service kind                             : Complete Main
Default                                  : Yes
Forced                                   : No

Audio #2
ID                                       : 3
Format                                   : AC-3
Format/Info                              : Audio Coding 3
Commercial name                          : Dolby Digital
Codec ID                                 : A_AC3
Duration                                 : 1 h 34 min
Bit rate mode                            : Constant
Bit rate                                 : 192 kb/s
Channel(s)                               : 2 channels
Channel layout                           : L R
Sampling rate                            : 48.0 kHz
Frame rate                               : 31.250 FPS (1536 SPF)
Bit depth                                : 16 bits
Compression mode                         : Lossy
Stream size                              : 129 MiB (1%)
Title                                    : DUB [Новий канал]
Language                                 : Ukrainian
Service kind                             : Complete Main
Default                                  : No
Forced                                   : No

Audio #3
ID                                       : 4
Format                                   : AC-3
Format/Info                              : Audio Coding 3
Commercial name                          : Dolby Digital
Codec ID                                 : A_AC3
Duration                                 : 1 h 34 min
Bit rate mode                            : Constant
Bit rate                                 : 640 kb/s
Channel(s)                               : 6 channels
Channel layout                           : L R C LFE Ls Rs
Sampling rate                            : 48.0 kHz
Frame rate                               : 31.250 FPS (1536 SPF)
Bit depth                                : 16 bits
Compression mode                         : Lossy
Stream size                              : 431 MiB (2%)
Language                                 : English
Service kind                             : Complete Main
Default                                  : No
Forced                                   : No

Text #1
ID                                       : 5
Format                                   : UTF-8
Codec ID                                 : S_TEXT/UTF8
Codec ID/Info                            : UTF-8 Plain Text
Duration                                 : 59 min 21 s
Bit rate                                 : 4 b/s
Count of elements                        : 31
Stream size                              : 1.77 KiB (0%)
Title                                    : Forced
Language                                 : Russian
Default                                  : Yes
Forced                                   : No

Text #2
ID                                       : 6
Format                                   : UTF-8
Codec ID                                 : S_TEXT/UTF8
Codec ID/Info                            : UTF-8 Plain Text
Duration                                 : 1 h 26 min
Bit rate                                 : 68 b/s
Count of elements                        : 993
Stream size                              : 43.3 KiB (0%)
Title                                    : Full
Language                                 : Russian
Default                                  : No
Forced                                   : No

Text #3
ID                                       : 7
Format                                   : UTF-8
Codec ID                                 : S_TEXT/UTF8
Codec ID/Info                            : UTF-8 Plain Text
Duration                                 : 59 min 21 s
Bit rate                                 : 3 b/s
Count of elements                        : 31
Stream size                              : 1.67 KiB (0%)
Title                                    : Forced
Language                                 : Ukrainian
Default                                  : No
Forced                                   : No

Text #4
ID                                       : 8
Format                                   : UTF-8
Codec ID                                 : S_TEXT/UTF8
Codec ID/Info                            : UTF-8 Plain Text
Duration                                 : 1 h 26 min
Bit rate                                 : 66 b/s
Count of elements                        : 998
Stream size                              : 41.8 KiB (0%)
Title                                    : Full
Language                                 : Ukrainian
Default                                  : No
Forced                                   : No

Text #5
ID                                       : 9
Format                                   : UTF-8
Codec ID                                 : S_TEXT/UTF8
Codec ID/Info                            : UTF-8 Plain Text
Duration                                 : 1 h 26 min
Bit rate                                 : 39 b/s
Count of elements                        : 1031
Stream size                              : 25.1 KiB (0%)
Title                                    : Full
Language                                 : English
Default                                  : No
Forced                                   : No

Text #6
ID                                       : 10
Format                                   : UTF-8
Codec ID                                 : S_TEXT/UTF8
Codec ID/Info                            : UTF-8 Plain Text
Duration                                 : 1 h 26 min
Bit rate                                 : 50 b/s
Count of elements                        : 1343
Stream size                              : 32.1 KiB (0%)
Title                                    : SDH
Language                                 : English
Default                                  : No
Forced                                   : No

Menu
00:00:00.000                             : en:Chapter 1
00:02:39.951                             : en:Chapter 2
00:08:07.737                             : en:Chapter 3
00:10:53.862                             : en:Chapter 4
00:14:33.039                             : en:Chapter 5
00:17:23.918                             : en:Chapter 6
00:19:53.067                             : en:Chapter 7
00:23:41.879                             : en:Chapter 8
00:27:54.590                             : en:Chapter 9
00:30:30.078                             : en:Chapter 10
00:33:26.588                             : en:Chapter 11
00:39:36.791                             : en:Chapter 12
00:43:12.965                             : en:Chapter 13
00:47:53.287                             : en:Chapter 14
00:50:35.157                             : en:Chapter 15
00:52:12.254                             : en:Chapter 16
00:55:28.825                             : en:Chapter 17
00:57:13.055                             : en:Chapter 18
01:00:17.113                             : en:Chapter 19
01:02:37.754                             : en:Chapter 20
01:06:36.367                             : en:Chapter 21
01:11:12.101                             : en:Chapter 22
01:13:44.462                             : en:Chapter 23
01:15:07.878                             : en:Chapter 24
01:18:57.107                             : en:Chapter 25
01:21:52.366                             : en:Chapter 26
01:24:32.276                             : en:Chapter 27
01:26:46.201                             : en:Chapter 28



Скриншоты:
[+] Всего файлов в раздаче - 1:
The.New.Mutants.(2020).BDRip.2160p.HDR.mkv17.10 GB

Показать еще раздачи по запросу новые:
2020-11-21 U Новые мутанты / Люди Икс: Новые мутанты / The New Mutants (2020) BDRip-HEVC 1080p от HEVC-CLUB | iTunes 5.29 GB ↑ 117 ↓ 56
2020-11-20 U Новые мутанты / Люди Икс: Новые мутанты / The New Mutants (2020) BDRip-AVC | iTunes 1.93 GB ↑ 78 ↓ 28
2020-11-19 U Новые мутанты / Люди Икс: Новые мутанты / The New Mutants (2020) HDRip | iTunes 746.22 MB ↑ 84 ↓ 50
2020-11-19 U Новые мутанты / Люди Икс: Новые мутанты / The New Mutants (2020) BDRip-AVC от ExKinoRay | iTunes 743.49 MB ↑ 62 ↓ 54
2020-11-19 U Новые мутанты / Люди Икс: Новые мутанты / The New Mutants (2020) BDRip-AVC от ExKinoRay | iTunes 1.41 GB ↑ 123 ↓ 23
2020-11-19 U Новые мутанты / Люди Икс: Новые мутанты / The New Mutants (2020) BDRip от MegaPeer | iTunes 1.46 GB ↑ 100 ↓ 38
2020-11-19 U Новые мутанты / Люди Икс: Новые мутанты / The New Mutants (2020) BDRemux 1080p от селезень | iTunes 23.12 GB ↑ 56 ↓ 42

Отзывы
Зарегистрируйтесь чтобы добавить комментарий.
Загрузите программу
  uTorrent.exe
Обратная связь
Copyleft ©