↑↓torrent.by
Поиск
Логин: Регистрация
Пароль: Восстановить пароль

Гренландия / Greenland (2020) WEB-DL-HEVC 2160p | 4K | HDR | Line

Скачать grenlandiya-greenland-2020-web-dl-hevc-2160p-4k-hdr-line.torrent
U Магнитная ссылка Размер: 15.51 GB Раздают: 65 Качают: 40 Добавлен: 2020-11-21 05:15:40
Гренландия / Greenland (2020) WEB-DL-HEVC 2160p | 4K | HDR | Line

Название: Гренландия
Оригинальное название: Greenland
Год выхода: 2020
Жанр: боевик

Режиссер: Рик Роман Во

В ролях: Джерард Батлер, Морена Баккарин, Роджер Дэйл Флойд, Скотт Гленн, Рендал Гонсалес, Рик Паскуалоне, Никола Ламбо, Алан Петрушевски, Скотт Пойтресс, Клер Бронсон

О фильме:
Во всех СМИ твердят о приближающейся к Земле комете, а инженера-строителя Джона Гэррити больше волнует, как сохранить разваливающийся брак. Сегодня у них намечена вечеринка с соседями и, отправившись в супермаркет за продуктами, Джон внезапно получает президентское сообщение, что он и его семья выбраны для спасения в секретном бункере. Поначалу он не придаёт этому значения, но вскоре ударная волна от столкновения первых частей кометы с Землёй докатывается до их тихого пригорода, а по всем каналам начинают транслировать ужасающие кадры разрушений. Сев с женой и сыном в машину под растерянными взглядами соседей, Джон спешит в аэропорт, где производится посадка получивших сообщения в грузовые самолёты.

Страна: США, Великобритания
Продолжительность: 01:59:28
Перевод: Профессиональный дублированный (Line)

Файл
Кодек: H.265
Качество: WEB-DL 2160p
Видео:  MPEG-H HEVC, HDR, 3840x2160 (16:9), 23.976 fps, 17.6 Mb/s, 10 Bit
Аудио 1: AC3, 48.0 kHz, 2 ch, 192 kb/s | [DUB - Line] RUS
Аудио 2: AC3, 48.0 kHz, 2 ch, 192 kb/s | [DUB - Line] UKR
Аудио 3: AC3, 48.0 kHz, 6 ch, 640 kb/s | [Оригинал] ENG
Субтитры: английские

Семпл


[+] MI
General
Unique ID                                : 203804249507505042194713363042610857262 (0x9953454C11F01C10B21C05D60FBE452E)
Complete name                            : Greenland.(2020).WEB-DL.2160p.HDR.Line.mkv
Format                                   : Matroska
Format version                           : Version 4
File size                                : 15.5 GiB
Duration                                 : 1 h 59 min
Overall bit rate                         : 18.6 Mb/s
Encoded date                             : UTC 2020-11-20 16:36:05
Writing application                      : mkvmerge v8.3.0 ('Over the Horizon') 64bit
Writing library                          : libebml v1.3.1 + libmatroska v1.4.2

Video
ID                                       : 1
Format                                   : HEVC
Format/Info                              : High Efficiency Video Coding
Commercial name                          : HDR10
Format profile                           : Main 10@L5.1@Main
Codec ID                                 : V_MPEGH/ISO/HEVC
Duration                                 : 1 h 59 min
Bit rate                                 : 17.6 Mb/s
Width                                    : 3 840 pixels
Height                                   : 2 160 pixels
Display aspect ratio                     : 16:9
Frame rate mode                          : Constant
Frame rate                               : 23.976 (24000/1001) FPS
Original frame rate                      : 23.976 (23976/1000) FPS
Color space                              : YUV
Chroma subsampling                       : 4:2:0
Bit depth                                : 10 bits
Bits/(Pixel*Frame)                       : 0.088
Stream size                              : 14.7 GiB (94%)
Writing library                          : x265 3.0_RC+11-72188bd2f034:[Linux][GCC 4.9.2][64 bit] 10bit
Encoding settings                        : cpuid=1111039 / frame-threads=3 / wpp / no-pmode / no-pme / no-psnr / no-ssim / log-level=2 / input-csp=1 / input-res=3840x2160 / interlace=0 / total-frames=0 / level-idc=51 / high-tier=1 / uhd-bd=0 / ref=4 / no-allow-non-conformance / repeat-headers / annexb / no-aud / no-hrd / info / hash=0 / no-temporal-layers / no-open-gop / min-keyint=24 / keyint=48 / gop-lookahead=0 / bframes=3 / b-adapt=0 / no-b-pyramid / bframe-bias=0 / rc-lookahead=15 / lookahead-slices=8 / scenecut=0 / radl=0 / no-splice / no-intra-refresh / ctu=64 / min-cu-size=8 / no-rect / no-amp / max-tu-size=32 / tu-inter-depth=1 / tu-intra-depth=1 / limit-tu=0 / rdoq-level=0 / dynamic-rd=0.00 / no-ssim-rd / signhide / no-tskip / nr-intra=0 / nr-inter=0 / no-constrained-intra / strong-intra-smoothing / max-merge=2 / limit-refs=3 / no-limit-modes / me=1 / subme=2 / merange=57 / temporal-mvp / weightp / no-weightb / no-analyze-src-pics / deblock=0:0 / sao / no-sao-non-deblock / rd=2 / no-early-skip / rskip / fast-intra / no-tskip-fast / no-cu-lossless / no-b-intra / no-splitrd-skip / rdpenalty=0 / psy-rd=2.00 / psy-rdoq=0.00 / no-rd-refine / no-lossless / cbqpoffs=0 / crqpoffs=0 / rc=cbr / bitrate=18000 / qcomp=0.60 / qpstep=4 / stats-write=0 / stats-read=0 / vbv-maxrate=18000 / vbv-bufsize=36000 / vbv-init=0.9 / ipratio=1.40 / pbratio=1.30 / aq-mode=2 / aq-strength=1.00 / cutree / zone-count=0 / no-strict-cbr / qg-size=32 / no-rc-grain / qpmax=69 / qpmin=0 / no-const-vbv / sar=1 / overscan=0 / videoformat=5 / range=0 / colorprim=9 / transfer=16 / colormatrix=9 / chromaloc=0 / display-window=0 / master-display=G(13250,34500)B(7500,3000)R(34000,16000)WP(15635,16450)L(10000000,50) / max-cll=967,343 / min-luma=0 / max-luma=1023 / log2-max-poc-lsb=8 / vui-timing-info / vui-hrd-info / slices=1 / no-opt-qp-pps / no-opt-ref-list-length-pps / no-multi-pass-opt-rps / scenecut-bias=0.05 / no-opt-cu-delta-qp / no-aq-motion / hdr / no-hdr-opt / no-dhdr10-opt / no-idr-recovery-sei / analysis-reuse-level=5 / scale-factor=0 / refine-intra=0 / refine-inter=0 / refine-mv=0 / refine-ctu-distortion=0 / no-limit-sao / ctu-info=0 / no-lowpass-dct / refine-analysis-type=0 / copy-pic=1 / max-ausize-factor=1.0 / no-dynamic-refine / no-single-sei / no-hevc-aq / qp-adaptation-range=1.00
Default                                  : Yes
Forced                                   : No
Color range                              : Limited
Color primaries                          : BT.2020
Transfer characteristics                 : PQ
Matrix coefficients                      : BT.2020 non-constant
Mastering display color primaries        : Display P3
Mastering display luminance              : min: 0.0050 cd/m2, max: 1000 cd/m2
Maximum Content Light Level              : 967 cd/m2
Maximum Frame-Average Light Level        : 343 cd/m2

Audio #1
ID                                       : 2
Format                                   : AC-3
Format/Info                              : Audio Coding 3
Commercial name                          : Dolby Digital
Codec ID                                 : A_AC3
Duration                                 : 1 h 59 min
Bit rate mode                            : Constant
Bit rate                                 : 192 kb/s
Channel(s)                               : 2 channels
Channel layout                           : L R
Sampling rate                            : 48.0 kHz
Frame rate                               : 31.250 FPS (1536 SPF)
Bit depth                                : 16 bits
Compression mode                         : Lossy
Stream size                              : 164 MiB (1%)
Title                                    : DUB (Line)
Language                                 : Russian
Service kind                             : Complete Main
Default                                  : Yes
Forced                                   : No

Audio #2
ID                                       : 3
Format                                   : AC-3
Format/Info                              : Audio Coding 3
Commercial name                          : Dolby Digital
Codec ID                                 : A_AC3
Duration                                 : 1 h 59 min
Bit rate mode                            : Constant
Bit rate                                 : 192 kb/s
Channel(s)                               : 2 channels
Channel layout                           : L R
Sampling rate                            : 48.0 kHz
Frame rate                               : 31.250 FPS (1536 SPF)
Bit depth                                : 16 bits
Compression mode                         : Lossy
Stream size                              : 164 MiB (1%)
Title                                    : DUB (Line)
Language                                 : Ukrainian
Service kind                             : Complete Main
Default                                  : No
Forced                                   : No

Audio #3
ID                                       : 4
Format                                   : AC-3
Format/Info                              : Audio Coding 3
Commercial name                          : Dolby Digital
Codec ID                                 : A_AC3
Duration                                 : 1 h 59 min
Bit rate mode                            : Constant
Bit rate                                 : 640 kb/s
Channel(s)                               : 6 channels
Channel layout                           : L R C LFE Ls Rs
Sampling rate                            : 48.0 kHz
Frame rate                               : 31.250 FPS (1536 SPF)
Bit depth                                : 16 bits
Compression mode                         : Lossy
Stream size                              : 547 MiB (3%)
Language                                 : English
Service kind                             : Complete Main
Default                                  : No
Forced                                   : No

Text
ID                                       : 5
Format                                   : UTF-8
Codec ID                                 : S_TEXT/UTF8
Codec ID/Info                            : UTF-8 Plain Text
Duration                                 : 1 h 52 min
Bit rate                                 : 60 b/s
Count of elements                        : 1501
Stream size                              : 49.8 KiB (0%)
Language                                 : English
Default                                  : No
Forced                                   : No



Скриншоты:
[+] Всего файлов в раздаче - 1:
Greenland.(2020).WEB-DL.2160p.HDR.Line.mkv15.51 GB

Похожие раздачи по запросу - гренландия:
2020-11-16 U Гренландия / Greenland (2020) WEB-DLRip от Twister & ExKinoRay | Line 1.47 GB ↑ 89 ↓ 33
2020-11-16 U Гренландия / Greenland (2020) WEB-DLRip от Twister & ExKinoRay | Line 2.19 GB ↑ 114 ↓ 43
2020-11-14 U Гренландия / Greenland (2020) WEB-DLRip от Dalemake | D | Line 2К1.46 GB ↑ 2226 ↓ 559

Отзывы
Зарегистрируйтесь чтобы добавить комментарий.
Загрузите программу
  uTorrent.exe
Обратная связь
Copyleft ©