↑↓torrent.by
Поиск
Логин: Регистрация
Пароль: Восстановить пароль

Аутло (2019) WEB-DL 1080p | iTunes

Скачать autlo-2019-web-dl-1080p-itunes.torrent
U Магнитная ссылка Размер: 3.37 GB Раздают: 46 Качают: 17 Добавлен: 2020-11-21 05:16:50
Аутло (2019) WEB-DL 1080p | iTunes

Название: Аутло
Год выхода: 2019
Жанр: Драма
Режиссер: Ксения Ратушная
В ролях: Виктор Тарасенко, Елизавета Кашинцева, Евгений Шварцман, Глеб Калюжный, Сергей Епишев, Виталий Кудрявцев, Андрей Москвичев, Евгений Даль, Николай Сахаров, Сергей Двойников

О фильме: Старшеклассник-гей и загадочная бунтарка пытаются добиться взаимности одного и того же парня. Генерал и танцовщица-трансгендер в 1980-х ставят на кон карьеру и жизнь, чтобы быть вместе.

Выпущено: Россия / Irony Production
Продолжительность: 01:35:39
Озвучивание: Оригинальное | iTunes

Файл
Формат: MKV
Качество: WEB-DL 1080p
Видео: MPEG-4 AVC, 4662 Kb/s, 1920x808
Аудио: Russian: 48 kHz, AC3 Dolby Digital, 3/2 (L, C, R, l, r) + LFE ch, ~384 Kbps
Субтитры: Нет
Дополнительно: Сохранены оригинальные чаптеры.

Релиз:


[+] MediaInfo:
Video
ID : 1
Format : AVC
Format/Info : Advanced Video Codec
Format profile : High@L4
Format settings : CABAC / 5 Ref Frames
Format settings, CABAC : Yes
Format settings, Reference : 5 frames
Codec ID : V_MPEG4/ISO/AVC
Duration : 1 h 35 min
Bit rate : 4 662 kb/s
Width : 1 920 pixels
Height : 808 pixels
Display aspect ratio : 2.40:1
Frame rate mode : Constant
Frame rate : 25.000 FPS
Color space : YUV
Chroma subsampling : 4:2:0
Bit depth : 8 bits
Scan type : Progressive
Bits/(Pixel*Frame) : 0.120
Stream size : 3.11 GiB (92%)
Title : AUTLO_2019_WEB-DL_1080p-BLUEBIRD
Language : English
Default : Yes
Forced : No
Color range : Limited
Color primaries : BT.709
Transfer characteristics : BT.709
Matrix coefficients : BT.709

Audio
ID : 2
Format : AC-3
Format/Info : Audio Coding 3
Commercial name : Dolby Digital
Codec ID : A_AC3
Duration : 1 h 35 min
Bit rate mode : Constant
Bit rate : 384 kb/s
Channel(s) : 6 channels
Channel layout : L R C LFE Ls Rs
Sampling rate : 48.0 kHz
Frame rate : 31.250 FPS (1536 SPF)
Compression mode : Lossy
Delay relative to video : -40 ms
Stream size : 263 MiB (8%)
Title : [ORIGINAL] DD 5.1 @ 384 kbps (iTunes)
Language : Russian
Service kind : Complete Main
Default : Yes
Forced : No

Menu
00:00:00.000 : en:Глава 1
00:06:35.840 : en:Глава 2
00:15:05.760 : en:Глава 3
00:20:22.920 : en:Глава 4
00:31:00.480 : en:Глава 5
00:39:02.800 : en:Глава 6
00:46:13.040 : en:Глава 7
00:53:58.920 : en:Глава 8
00:59:41.480 : en:Глава 9
01:06:53.920 : en:Глава 10
01:14:29.360 : en:Глава 11
01:21:00.960 : en:Глава 12
01:29:10.040 : en:Глава 13



Скриншоты:
[+] Всего файлов в раздаче - 1:
AUTLO_2019_WEB-DL_1080p-BLUEBIRD.mkv3.37 GB

Похожие раздачи по запросу - аутло:
2020-11-22 U Аутло (2019) WEB-DLRip | iTunes 746.74 MB ↑ 25 ↓ 16
2020-11-21 U Аутло (2019) WEB-DLRip от MegaPeer | iTunes 1.46 GB ↑ 111 ↓ 33
2020-11-21 U Аутло (2019) WEB-DLRip от ELEKTRI4KА | iTunes 1.46 GB ↑ 47 ↓ 18

Отзывы
Зарегистрируйтесь чтобы добавить комментарий.
Загрузите программу
  uTorrent.exe
Обратная связь
Copyleft ©