↑↓torrent.by
Поиск
Логин: Регистрация
Пароль: Восстановить пароль

Кто не спрятался / The Rental (2020) BDRip 720p от селезень | iTunes

Скачать kto-ne-spryatalsya-the-rental-2020-bdrip-720p-ot-selezen-itunes.torrent
U Магнитная ссылка Размер: 3.20 GB Раздают: 44 Качают: 6 Добавлен: 2020-11-21 05:16:58
Кто не спрятался / The Rental (2020) BDRip 720p от селезень | iTunes

Название: Кто не спрятался
Оригинальное название: The Rental
Год выхода: 2020
Жанр: Ужасы, триллер
Режиссер: Дэйв Франко
В ролях: Дэн Стивенс, Элисон Бри, Тоби Хасс, Шейла Ванд, Джереми Аллен Уайт, Конни Веллман, Чанк

О фильме: Вы снимали жилье через Airbnb? Смотрели красивые картинки на сайте и представляли идеальный отпуск? Две молодые пары решили оторваться на берегу океана и арендовали роскошную виллу. Они не знали, что в каждой комнате установлены камеры, и за ними пристально следят. Их маленькие секреты, а вместе с ними и тайна всего дома станут явью, но это лишь начало игры. Кто не спрятался…

Страна: США
Студия: Black Bear Pictures
Продолжительность: 01:28:19
Перевод: Дублированный | iTunes

Качество: BDRip 720p
Видео: MPEG-4 AVC, 1280x536, 4166 Кbit/s, 23.976 fps
Аудио #01: 48 kHz, AC3, 5.1, 384 Kbps | iTunes | RUS |
Аудио #02: 48 kHz, AC3, 5.1, 640 Kbps | Оригинал | ENG |
Субтитры: Русские (Full), английские

Релиз: Присоединяйся к:


[+] MI
General
Unique ID                   : 62231648165282366617183022030233085656 (0x2ED16124E186C4D3F96D4B50B4E126D8)
Complete name               : D:Video111The.Rental.2020.BDRip.720p.seleZen.mkv
Format                      : Matroska
Format version              : Version 4
File size                   : 3.20 GiB
Duration                    : 1 h 28 min
Overall bit rate            : 5 190 kb/s
Movie name                  : The Rental 2020 from seleZen
Encoded date                : UTC 2020-11-20 14:14:11
Writing application         : mkvmerge v40.0.0 ('Old Town Road + Pony') 64-bit
Writing library             : libebml v1.3.9 + libmatroska v1.5.2

Video
ID                          : 1
Format                      : AVC
Format/Info                 : Advanced Video Codec
Format profile              : High@L4.1
Format settings             : CABAC / 12 Ref Frames
Format settings, CABAC      : Yes
Format settings, Reference  : 12 frames
Codec ID                    : V_MPEG4/ISO/AVC
Duration                    : 1 h 28 min
Bit rate                    : 4 166 kb/s
Width                       : 1 280 pixels
Height                      : 536 pixels
Display aspect ratio        : 2.40:1
Frame rate mode             : Constant
Frame rate                  : 23.976 (24000/1001) FPS
Color space                 : YUV
Chroma subsampling          : 4:2:0
Bit depth                   : 8 bits
Scan type                   : Progressive
Bits/(Pixel*Frame)          : 0.253
Stream size                 : 2.57 GiB (80%)
Title                       : MTeam
Writing library             : x264 core 157 r2938 2b00a84 TnP@MTeam Mod
Encoding settings           : cabac=1 / ref=12 / deblock=1:-3:-3 / analyse=0x3:0x133 / me=umh / subme=10 / psy=1 / psy_rd=1.05:0.00 / mixed_ref=1 / me_range=32 / chroma_me=1 / trellis=2 / 8x8dct=1 / cqm=0 / deadzone=21,11 / fast_pskip=0 / chroma_qp_offset=-2 / threads=12 / lookahead_threads=2 / sliced_threads=0 / nr=0 / decimate=0 / interlaced=0 / bluray_compat=0 / constrained_intra=0 / bframes=8 / b_pyramid=2 / b_adapt=2 / b_bias=0 / direct=3 / weightb=1 / open_gop=0 / weightp=2 / keyint=250 / keyint_min=24 / scenecut=40 / intra_refresh=0 / rc_lookahead=250 / rc=crf / mbtree=0 / crf=16.8 / qcomp=0.60 / qpmin=0 / qpmax=69 / qpstep=4 / vbv_maxrate=62500 / vbv_bufsize=78125 / crf_max=0.0 / nal_hrd=none / filler=0 / ip_ratio=1.30 / pb_ratio=1.20 / aq=3:0.80
Language                    : English
Default                     : Yes
Forced                      : No
Color range                 : Limited
Color primaries             : BT.709
Matrix coefficients         : BT.709

Audio #1
ID                          : 2
Format                      : AC-3
Format/Info                 : Audio Coding 3
Commercial name             : Dolby Digital
Codec ID                    : A_AC3
Duration                    : 1 h 28 min
Bit rate mode               : Constant
Bit rate                    : 384 kb/s
Channel(s)                  : 6 channels
Channel layout              : L R C LFE Ls Rs
Sampling rate               : 48.0 kHz
Frame rate                  : 31.250 FPS (1536 SPF)
Compression mode            : Lossy
Stream size                 : 243 MiB (7%)
Title                       : iTunes
Language                    : Russian
Service kind                : Complete Main
Default                     : Yes
Forced                      : Yes

Audio #2
ID                          : 3
Format                      : AC-3
Format/Info                 : Audio Coding 3
Commercial name             : Dolby Digital
Codec ID                    : A_AC3
Duration                    : 1 h 28 min
Bit rate mode               : Constant
Bit rate                    : 640 kb/s
Channel(s)                  : 6 channels
Channel layout              : L R C LFE Ls Rs
Sampling rate               : 48.0 kHz
Frame rate                  : 31.250 FPS (1536 SPF)
Compression mode            : Lossy
Stream size                 : 404 MiB (12%)
Title                       : Original
Language                    : English
Service kind                : Complete Main
Default                     : No
Forced                      : No

Text #1
ID                          : 4
Format                      : UTF-8
Codec ID                    : S_TEXT/UTF8
Codec ID/Info               : UTF-8 Plain Text
Duration                    : 1 h 22 min
Bit rate                    : 80 b/s
Count of elements           : 1116
Stream size                 : 48.1 KiB (0%)
Title                       : Full
Language                    : Russian
Default                     : No
Forced                      : No

Text #2
ID                          : 5
Format                      : UTF-8
Codec ID                    : S_TEXT/UTF8
Codec ID/Info               : UTF-8 Plain Text
Duration                    : 1 h 21 min
Bit rate                    : 48 b/s
Count of elements           : 1132
Stream size                 : 28.9 KiB (0%)
Title                       : Full
Language                    : English
Default                     : No
Forced                      : No

Text #3
ID                          : 6
Format                      : UTF-8
Codec ID                    : S_TEXT/UTF8
Codec ID/Info               : UTF-8 Plain Text
Duration                    : 1 h 23 min
Bit rate                    : 49 b/s
Count of elements           : 1216
Stream size                 : 30.2 KiB (0%)
Title                       : SDH
Language                    : English
Default                     : No
Forced                      : No

Menu
00:00:00.000                : en:Chapter 01
00:06:23.633                : en:Chapter 02
00:13:42.530                : en:Chapter 03
00:20:57.673                : en:Chapter 04
00:30:15.063                : en:Chapter 05
00:36:32.482                : en:Chapter 06
00:43:36.614                : en:Chapter 07
00:49:01.438                : en:Chapter 08
00:53:06.266                : en:Chapter 09
00:59:48.376                : en:Chapter 10
01:06:57.847                : en:Chapter 11
01:15:28.190                : en:Chapter 12



Скриншоты:
[+] Всего файлов в раздаче - 1:
The.Rental.2020.BDRip.720p.seleZen.mkv3.20 GB

Похожие раздачи по запросу - спрятался:
2020-11-21 U Кто не спрятался / The Rental (2020) BDRip 1080p | iTunes 9.60 GB ↑ 36 ↓ 10
2020-11-13 U Кто не спрятался / The Rental (2020) WEB-DL 1080p от селезень | iTunes 4.97 GB ↑ 190 ↓ 110
2020-11-13 U Кто не спрятался / The Rental (2020) HDRip от MegaPeer | iTunes 1.46 GB ↑ 285 ↓ 78

Отзывы
Зарегистрируйтесь чтобы добавить комментарий.
Загрузите программу
  uTorrent.exe
Обратная связь
Copyleft ©