↑↓torrent.by
Поиск
Логин: Регистрация
Пароль: Восстановить пароль

Гарри Браун / Harry Brown (2009) BDRip 1080p | P, A

Скачать garri-braun-harry-brown-2009-bdrip-1080p-p-a.torrent
U Магнитная ссылка Размер: 7.95 GB Раздают: 35 Качают: 23 Добавлен: 2020-11-21 05:17:24
Гарри Браун / Harry Brown (2009) BDRip 1080p | P, A

Название: Гарри Браун
Оригинальное название: Harry Brown
Год выхода: 2009
Жанр: Триллер, драма, криминал
Режиссер: Дэниэл Барбер
В ролях: Майкл Кейн, Эмили Мортимер, Айэйн Глен, Бен Дрю, Лиам Каннингэм, Джек О`Коннелл, Раза Джеффри, Дэвид Брэдли, Шон Харрис, Чарли Крид-Майлз
О фильме:
Он прожил свою жизнь, не боясь смотреть в лицо смерти. Но та смерть была в честном бою, с таким, же противником, как и он сам. Старость изменила всё… даже смерть, которая приходит теперь исподтишка. В парке, во дворе дома, в подземном переходе.
Смерть жены и ранняя потеря дочери принесли в жизнь печаль, а зверское убийство друга ожесточило сердце. А всему виной то поколение, которое годится ему во внуки, которое кроваво и подло властвует в том маленьком мирке, где живёт Гарри Браун. Осознав, что терять больше нечего, старик Браун выходит на бой. И первой целью его становятся те, кто превращает детей в бессердечных убийц.
 
Выпущено: Великобритания / Framestore, HanWay Films, Marv Films, Prescience, Prescience Film Fund, UK Film Council
Продолжительность: 01:42:46
Перевод: Профессиональный многоголосый, авторский
Файл
Кодек: MPEG-4 AVC
Качество: BDRip 1080p
Видео: 1920x812 23,976 fps, 9357 kbps
Звук:
Russian: AC3, 448 Kbps (6 ch) Профессиональный многоголосый (BBC Saint-Petersburg)
Russian: AC3, 448 Kbps (6 ch) Авторский (Ю. Сербин)
Russian: AC3, 192 Kbps (2 ch) Авторский (А. Гаврилов)
English: AC3, 640 Kbps (6 ch) Original
Субтитры: Russian, English
Семпл

Релиз:


[+] MediaInfo & x264

Уникальный идентификатор                 : 194247448636734174615551432461405485598 (0x9222B2A2B1F48E1BA0FDFE555BAD7A1E)
Полное имя                               : Harry.Brown.2009.х264.BDRip.1080р.mkv
Формат                                   : Matroska
Версия формата                           : Version 4 / Version 2
Размер файла                             : 7,95 Гбайт
Продолжительность                        : 1 ч. 42 м.
Общий поток                              : 11,1 Мбит/сек
Название фильма                          : ☭WIDDER☭
Дата кодирования                         : UTC 2013-09-26 11:23:26
Программа кодирования                    : mkvmerge v6.3.0 ('You can't stop me!') built on Jun 28 2013 20:09:41
Библиотека кодирования                   : libebml v1.3.0 + libmatroska v1.4.0

Видео
Идентификатор                            : 1
Формат                                   : AVC
Формат/Информация                        : Advanced Video Codec
Профиль формата                          : High@L4.1
Параметр CABAC формата                   : Да
Параметр ReFrames формата                : 5 кадров
Идентификатор кодека                     : V_MPEG4/ISO/AVC
Битрейт                                  : 9357 Кбит/сек
Ширина                                   : 1920 пикселей
Высота                                   : 812 пикселей
Соотношение сторон                       : 2,35:1
Режим частоты кадров                     : Переменный
Частота кадров в оригинале               : 23,976 кадра/сек
Цветовое пространство                    : YUV
Субдискретизация насыщенности            : 4:2:0
Битовая глубина                          : 8 бит
Тип развёртки                            : Прогрессивная
Бит/(Пиксели*Кадры)                      : 0.250
Заголовок                                : Гарри Браун / Harry Brown (2009)
Библиотека кодирования                   : x264 core 138 r2358 9e941d1
Настройки программы                      : cabac=1 / ref=5 / deblock=1:-3:-3 / analyse=0x3:0x133 / me=umh / subme=11 / psy=1 / psy_rd=1.00:0.00 / mixed_ref=1 / me_range=48 / chroma_me=1 / trellis=2 / 8x8dct=1 / cqm=0 / deadzone=21,11 / fast_pskip=0 / chroma_qp_offset=-2 / threads=12 / lookahead_threads=1 / sliced_threads=0 / nr=0 / decimate=1 / interlaced=0 / bluray_compat=0 / constrained_intra=0 / bframes=6 / b_pyramid=2 / b_adapt=2 / b_bias=0 / direct=3 / weightb=1 / open_gop=0 / weightp=2 / keyint=240 / keyint_min=23 / scenecut=40 / intra_refresh=0 / rc_lookahead=60 / rc=2pass / mbtree=0 / bitrate=9357 / ratetol=1.0 / qcomp=0.60 / qpmin=0 / qpmax=69 / qpstep=4 / cplxblur=20.0 / qblur=0.5 / vbv_maxrate=50000 / vbv_bufsize=62500 / nal_hrd=none / ip_ratio=1.40 / pb_ratio=1.30 / aq=2:0.80
Язык                                     : English
Default                                  : Да
Forced                                   : Нет

Аудио #1
Идентификатор                            : 2
Формат                                   : AC-3
Формат/Информация                        : Audio Coding 3
Расширение режима                        : CM (complete main)
Параметр Endianness формата              : Big
Идентификатор кодека                     : A_AC3
Продолжительность                        : 1 ч. 42 м.
Вид битрейта                             : Постоянный
Битрейт                                  : 448 Кбит/сек
Каналы                                   : 6 каналов
Расположение каналов                     : Front: L C R, Side: L R, LFE
Частота                                  : 48,0 КГц
Битовая глубина                          : 16 бит
Метод сжатия                             : С потерями
Размер потока                            : 329 Мбайт (4%)
Заголовок                                : AC3, 448 Kbps (6 ch) Профессиональный многоголосый
Язык                                     : Russian
Default                                  : Да
Forced                                   : Нет

Аудио #2
Идентификатор                            : 3
Формат                                   : AC-3
Формат/Информация                        : Audio Coding 3
Расширение режима                        : CM (complete main)
Параметр Endianness формата              : Big
Идентификатор кодека                     : A_AC3
Продолжительность                        : 1 ч. 42 м.
Вид битрейта                             : Постоянный
Битрейт                                  : 448 Кбит/сек
Каналы                                   : 6 каналов
Расположение каналов                     : Front: L C R, Side: L R, LFE
Частота                                  : 48,0 КГц
Битовая глубина                          : 16 бит
Метод сжатия                             : С потерями
Размер потока                            : 329 Мбайт (4%)
Заголовок                                : AC3, 448 Kbps (6 ch) Авторский (Ю. Сербин)
Язык                                     : Russian
Default                                  : Нет
Forced                                   : Нет

Аудио #3
Идентификатор                            : 4
Формат                                   : AC-3
Формат/Информация                        : Audio Coding 3
Расширение режима                        : CM (complete main)
Параметр Endianness формата              : Big
Идентификатор кодека                     : A_AC3
Продолжительность                        : 1 ч. 42 м.
Вид битрейта                             : Постоянный
Битрейт                                  : 192 Кбит/сек
Каналы                                   : 2 канала
Расположение каналов                     : Front: L R
Частота                                  : 48,0 КГц
Битовая глубина                          : 16 бит
Метод сжатия                             : С потерями
Размер потока                            : 141 Мбайт (2%)
Заголовок                                : AC3, 192 Kbps (2 ch) Авторский (А. Гаврилов)
Язык                                     : Russian
Default                                  : Нет
Forced                                   : Нет

Аудио #4
Идентификатор                            : 5
Формат                                   : AC-3
Формат/Информация                        : Audio Coding 3
Расширение режима                        : CM (complete main)
Параметр Endianness формата              : Big
Идентификатор кодека                     : A_AC3
Продолжительность                        : 1 ч. 42 м.
Вид битрейта                             : Постоянный
Битрейт                                  : 640 Кбит/сек
Каналы                                   : 6 каналов
Расположение каналов                     : Front: L C R, Side: L R, LFE
Частота                                  : 48,0 КГц
Битовая глубина                          : 16 бит
Метод сжатия                             : С потерями
Размер потока                            : 470 Мбайт (6%)
Заголовок                                : AC3, 640 Kbps (6 ch) Original
Язык                                     : English
Default                                  : Нет
Forced                                   : Нет

Текст #1
Идентификатор                            : 6
Формат                                   : UTF-8
Идентификатор кодека                     : S_TEXT/UTF8
Идентификатор кодека/Информация          : UTF-8 Plain Text
Язык                                     : Russian
Default                                  : Нет
Forced                                   : Нет

Текст #2
Идентификатор                            : 7
Формат                                   : UTF-8
Идентификатор кодека                     : S_TEXT/UTF8
Идентификатор кодека/Информация          : UTF-8 Plain Text
Язык                                     : English
Default                                  : Нет
Forced                                   : Нет

Меню
00:00:00.000                             : :Chapter 01
00:05:00.000                             : :Chapter 02
00:10:00.000                             : :Chapter 03
00:15:00.000                             : :Chapter 04
00:20:00.000                             : :Chapter 05
00:25:00.000                             : :Chapter 06
00:30:00.000                             : :Chapter 07
00:35:00.000                             : :Chapter 08
00:40:00.000                             : :Chapter 09
00:45:00.000                             : :Chapter 10
00:50:00.000                             : :Chapter 11
00:55:00.000                             : :Chapter 12
01:00:00.000                             : :Chapter 13
01:05:00.000                             : :Chapter 14
01:10:00.000                             : :Chapter 15
01:15:00.000                             : :Chapter 16
01:20:00.000                             : :Chapter 17
01:25:00.000                             : :Chapter 18
01:30:00.000                             : :Chapter 19
01:35:00.000                             : :Chapter 20
01:40:00.000                             : :Chapter 21
____________________________________________
x264 [info]: frame I:946   Avg QP:15.23  size:227759
x264 [info]: frame P:29494 Avg QP:17.28  size: 89133
x264 [info]: frame B:117400 Avg QP:19.24  size: 37195
x264 [info]: consecutive B-frames:  2.5%  1.5%  3.1%  7.7% 24.6% 34.2% 26.5%



Скриншоты:
[+] Всего файлов в раздаче - 1:
Harry.Brown.2009.х264.BDRip.1080р.mkv7.95 GB

Похожие раздачи по запросу - гарри:
2013-11-14 U Гарри Поттер и Дары смерти: Часть 2 / Harry Potter and the Deathly Hallows: Part 2 (2011) BDRip-AVC 2К2.70 GB ↑ 2306 ↓ 77
2013-10-27 U Гарри Поттер и узник Азкабана / Harry Potter and the Prisoner of Azkaban (2004) PC 5К458.31 MB ↑ 1209 ↓ 65534
2013-10-22 U Гарри Поттер: Коллекция / Harry Potter: Collection (2001-2011) HDRip-AVC 2К17.12 GB ↑ 1663 ↓ 1152
2013-10-16 U Гарри Гаррисон - сборник произведений [136 штук] FB2 8К13.16 MB ↑ 9982 ↓ 1148
2013-10-11 U Гарри Поттер и Принц-полукровка / Harry Potter and the Half-Blood Prince (2009) HDRip 3К1.46 GB ↑ 1910 ↓ 42
2013-10-11 U Роулинг Джоан Кэтлин - Гарри Поттер. Книги 1-7 (2006-2011) MP3 2К3.42 GB ↑ 862 ↓ 99

Отзывы
Зарегистрируйтесь чтобы добавить комментарий.
Загрузите программу
  uTorrent.exe
Обратная связь
Copyleft ©