↑↓torrent.by
Поиск
Логин: Регистрация
Пароль: Восстановить пароль

Кто не спрятался / The Rental (2020) BDRip 1080p | iTunes

Скачать kto-ne-spryatalsya-the-rental-2020-bdrip-1080p-itunes.torrent
U Магнитная ссылка Размер: 9.60 GB Раздают: 36 Качают: 10 Добавлен: 2020-11-21 05:17:29
Кто не спрятался / The Rental (2020) BDRip 1080p | iTunes

Название: Кто не спрятался
Оригинальное название: The Rental
Год выхода: 2020
Жанр: Ужасы, триллер
Режиссер: Дэйв Франко
В ролях: Дэн Стивенс, Элисон Бри, Тоби Хасс, Шейла Ванд, Джереми Аллен Уайт, Конни Веллман, Чанк, Энтони Молинари, Эмити Бэйкон, Чейз Баркер

О фильме:
Вы снимали жилье через интернет? Смотрели красивые картинки на сайте и представляли идеальный отпуск? Две молодые пары решили провести выходные на берегу океана и арендовали роскошную виллу. Они не знали, что в каждой комнате установлены камеры, и за ними пристально следят.

Страна: США
Студия: Black Bear Pictures
Продолжительность: 01:28:19
Перевод: Дублированный | iTunes

Файл
Кодек: x.264
Качество: BDRip 1080p
Видео: MPEG-4 AVC, 13.7 Mбит/с, 1920x804, 23.976 кадр/с
Аудио #1: Русский (АС3, 6 ch, 384 Кбит/с, 48.0 KHz) Профессиональный (дублированный) iTunes
Аудио #2: Английский (DTS, 6 ch, 1509 Кбит/с, 48.0 KHz)
Субтитры: английские
Трейлер




[+] MediaInfo
Источник: The.Rental.2020.1080p.BluRay.x264.DTS-MT
General
Unique ID                      : 253262059084896896519779775522449268061 (0xBE887F93016E1A3CB80E7430B7DE1D5D)
Complete name                  : The.Rental.2020.BDRip.1080p.mkv
Format                         : Matroska
Format version                 : Version 4
File size                      : 9.60 GiB
Duration                       : 1 h 28 min
Overall bit rate               : 15.6 Mb/s
Encoded date                   : UTC 2020-11-20 10:02:02
Writing application            : mkvmerge v7.1.0 ('Good Love') 64bit built on Jul 27 2014 13:06:55
Writing library                : libebml v1.3.0 + libmatroska v1.4.1

Video
ID                             : 1
Format                         : AVC
Format/Info                    : Advanced Video Codec
Format profile                 : High@L4.1
Format settings                : CABAC / 5 Ref Frames
Format settings, CABAC         : Yes
Format settings, Reference fra : 5 frames
Codec ID                       : V_MPEG4/ISO/AVC
Duration                       : 1 h 28 min
Bit rate                       : 13.7 Mb/s
Width                          : 1 920 pixels
Height                         : 804 pixels
Display aspect ratio           : 2.40:1
Frame rate mode                : Constant
Frame rate                     : 23.976 (24000/1001) FPS
Color space                    : YUV
Chroma subsampling             : 4:2:0
Bit depth                      : 8 bits
Scan type                      : Progressive
Bits/(Pixel*Frame)             : 0.369
Stream size                    : 8.43 GiB (88%)
Writing library                : x264 core 157 r2938 2b00a84 TnP@MTeam Mod
Encoding settings              : cabac=1 / ref=5 / deblock=1:-3:-3 / analyse=0x3:0x133 / me=umh / subme=10 / psy=1 / psy_rd=1.05:0.00 / mixed_ref=1 / me_range=32 / chroma_me=1 / trellis=2 / 8x8dct=1 / cqm=0 / deadzone=21,11 / fast_pskip=0 / chroma_qp_offset=-2 / threads=12 / lookahead_threads=2 / sliced_threads=0 / nr=0 / decimate=0 / interlaced=0 / bluray_compat=0 / constrained_intra=0 / bframes=8 / b_pyramid=2 / b_adapt=2 / b_bias=0 / direct=3 / weightb=1 / open_gop=0 / weightp=2 / keyint=250 / keyint_min=24 / scenecut=40 / intra_refresh=0 / rc_lookahead=250 / rc=crf / mbtree=0 / crf=16.8 / qcomp=0.60 / qpmin=0 / qpmax=69 / qpstep=4 / vbv_maxrate=62500 / vbv_bufsize=78125 / crf_max=0.0 / nal_hrd=none / filler=0 / ip_ratio=1.30 / pb_ratio=1.20 / aq=3:0.80
Language                       : English
Default                        : Yes
Forced                         : No
Color range                    : Limited
Color primaries                : BT.709
Matrix coefficients            : BT.709

Audio #1
ID                             : 2
Format                         : AC-3
Format/Info                    : Audio Coding 3
Commercial name                : Dolby Digital
Codec ID                       : A_AC3
Duration                       : 1 h 28 min
Bit rate mode                  : Constant
Bit rate                       : 384 kb/s
Channel(s)                     : 6 channels
Channel layout                 : L R C LFE Ls Rs
Sampling rate                  : 48.0 kHz
Frame rate                     : 31.250 FPS (1536 SPF)
Compression mode               : Lossy
Stream size                    : 243 MiB (2%)
Title                          : DUB | iTunes
Language                       : Russian
Service kind                   : Complete Main
Default                        : Yes
Forced                         : No

Audio #2
ID                             : 3
Format                         : DTS
Format/Info                    : Digital Theater Systems
Codec ID                       : A_DTS
Duration                       : 1 h 28 min
Bit rate mode                  : Constant
Bit rate                       : 1 509 kb/s
Channel(s)                     : 6 channels
Channel layout                 : C L R Ls Rs LFE
Sampling rate                  : 48.0 kHz
Frame rate                     : 93.750 FPS (512 SPF)
Bit depth                      : 24 bits
Compression mode               : Lossy
Stream size                    : 953 MiB (10%)
Language                       : English
Default                        : No
Forced                         : No

Text
ID                             : 4
Format                         : UTF-8
Codec ID                       : S_TEXT/UTF8
Codec ID/Info                  : UTF-8 Plain Text
Duration                       : 1 h 22 min
Bit rate                       : 48 b/s
Count of elements              : 1184
Stream size                    : 28.9 KiB (0%)
Language                       : English
Default                        : No
Forced                         : No

Menu
00:00:00.000                   : en:Chapter 01
00:06:23.633                   : en:Chapter 02
00:13:42.530                   : en:Chapter 03
00:20:57.673                   : en:Chapter 04
00:30:15.063                   : en:Chapter 05
00:36:32.482                   : en:Chapter 06
00:43:36.614                   : en:Chapter 07
00:49:01.438                   : en:Chapter 08
00:53:06.266                   : en:Chapter 09
00:59:48.376                   : en:Chapter 10
01:06:57.847                   : en:Chapter 11
01:15:28.190                   : en:Chapter 12



Скриншоты:
[+] Всего файлов в раздаче - 1:
The.Rental.2020.BDRip.1080p.mkv9.60 GB

Похожие раздачи по запросу - спрятался:
2020-11-21 U Кто не спрятался / The Rental (2020) BDRip 720p от селезень | iTunes 3.20 GB ↑ 44 ↓ 6
2020-11-13 U Кто не спрятался / The Rental (2020) WEB-DL 1080p от селезень | iTunes 4.97 GB ↑ 190 ↓ 110
2020-11-13 U Кто не спрятался / The Rental (2020) HDRip от MegaPeer | iTunes 1.46 GB ↑ 285 ↓ 78

Отзывы
Зарегистрируйтесь чтобы добавить комментарий.
Загрузите программу
  uTorrent.exe
Обратная связь
Copyleft ©