↑↓torrent.by
Поиск
Логин: Регистрация
Пароль: Восстановить пароль

Старгёрл / Stargirl (2020) WEB-DLRip-AVC от MediaBit | L

Скачать stargerl-stargirl-2020-web-dlrip-avc-ot-mediabit-l.torrent
U Магнитная ссылка Размер: 1.45 GB Раздают: 31 Качают: 10 Добавлен: 2020-11-21 05:18:36
Старгёрл / Stargirl (2020) WEB-DLRip-AVC от MediaBit | L

Старгёрл / Stargirl

Название:  Старгёрл
Оригинальное название:  Stargirl
Год выхода: 2020
Жанр: Драма, мелодрама, комедия
Режиссер:  Джулия Харт
В ролях:   Дэрби Стэнчфилд, Джанкарло Эспозито, Грэйс Вандервол, Шелби Симмонс, Грэм Верчир, Каран Брэр, Максимилиано Эрнандес, Дэмиан О'Хейр, Стэйси Джонсон, Кимберли В Сэндфер

Описание:   Экранизация одноименной книги Джерри Спирелли. Скромный старшеклассник по необъяснимым причинам тянется к свободной духом новенькой и проводит все свое свободное время, пытаясь узнать о ней больше. В результате - яркой и свободолюбивой девочке удалось изменить и обычного, невидимого подростка по имени Лео и жизнь всей школы.
 
Страна:  США
Студия:  BCDF Pictures, Gotham Group, Hahnscape Entertainment
Продолжительность:  01:43:19
Перевод:  Любительский (многоголосый, закадровый) - Синема УС

Информация о файле:
Кодек: AVC
Формат: MKV
Качество: WEB-DLRip-AVC
Видео: MPEG-4 AVC, 1024x512(2.000), 23.976 fps, 1818 kbps, 0.145
Аудио RU:  AC3, 2 ch, 48 kHz, 192 kbps  
Субтитры: Русские, английские

Релиз: &  &


[+] MediaInfo
x264 info: frame I:1078  Avg QP:15.41  size: 76634 [url=/tag/1/][/url]
x264 info: frame P:34618 Avg QP:19.42  size: 20278 [url=/tag/1/][/url]
x264 info: frame B:112935 Avg QP:20.87  size:  5525 [url=/tag/1/][/url]
General [url=/tag/1/][/url]
Unique ID                                : 235260820693183124562131889423525272732 (0xB0FD95FF99DB39D1F06B01E3CCE2DC9C) [url=/tag/1/][/url]
Complete name                            : D:uTorrentРипы_от_wolf1245_MediaBitStargirl (2020) WEB-DLRip-AVC from wolf1245 & MediaBit.mkv [url=/tag/1/][/url]
Format                                   : Matroska [url=/tag/1/][/url]
Format version                           : Version 4 [url=/tag/1/][/url]
File size                                : 1.45 GiB [url=/tag/1/][/url]
Duration                                 : 1 h 43 min [url=/tag/1/][/url]
Overall bit rate                         : 2 012 kb/s [url=/tag/1/][/url]
Movie name                               : Stargirl (2020) WEB-DLRip-AVC from wolf1245 & MediaBit [url=/tag/1/][/url]
Encoded date                             : UTC 2020-11-20 17:56:32 [url=/tag/1/][/url]
Writing application                      : mkvmerge v51.0.0 ('I Wish') 64-bit [url=/tag/1/][/url]
Writing library                          : libebml v1.4.0 + libmatroska v1.6.2 [url=/tag/1/][/url]
[url=/tag/1/][/url]
Video [url=/tag/1/][/url]
ID                                       : 1 [url=/tag/1/][/url]
Format                                   : AVC [url=/tag/1/][/url]
Format/Info                              : Advanced Video Codec [url=/tag/1/][/url]
Format profile                           : High@L4.1 [url=/tag/1/][/url]
Format settings                          : CABAC / 12 Ref Frames [url=/tag/1/][/url]
Format settings, CABAC                   : Yes [url=/tag/1/][/url]
Format settings, Reference frames        : 12 frames [url=/tag/1/][/url]
Codec ID                                 : V_MPEG4/ISO/AVC [url=/tag/1/][/url]
Duration                                 : 1 h 43 min [url=/tag/1/][/url]
Bit rate                                 : 1 818 kb/s [url=/tag/1/][/url]
Width                                    : 1 024 pixels [url=/tag/1/][/url]
Height                                   : 512 pixels [url=/tag/1/][/url]
Display aspect ratio                     : 2.000 [url=/tag/1/][/url]
Frame rate mode                          : Constant [url=/tag/1/][/url]
Frame rate                               : 23.976 (24000/1001) FPS [url=/tag/1/][/url]
Color space                              : YUV [url=/tag/1/][/url]
Chroma subsampling                       : 4:2:0 [url=/tag/1/][/url]
Bit depth                                : 8 bits [url=/tag/1/][/url]
Scan type                                : Progressive [url=/tag/1/][/url]
Bits/(Pixel*Frame)                       : 0.145 [url=/tag/1/][/url]
Stream size                              : 1.31 GiB (90%) [url=/tag/1/][/url]
Title                                    : wolf1245 & MediaBit [url=/tag/1/][/url]
Writing library                          : x264 core 157 r2958 57baac4 [url=/tag/1/][/url]
Encoding settings                        : cabac=1 / ref=12 / deblock=1:-3:-3 / analyse=0x3:0x133 / me=umh / subme=11 / psy=1 / psy_rd=1.03:0.03 / mixed_ref=1 / me_range=48 / chroma_me=1 / trellis=2 / 8x8dct=1 / cqm=0 / deadzone=21,11 / fast_pskip=0 / chroma_qp_offset=-3 / threads=10 / lookahead_threads=2 / sliced_threads=0 / nr=0 / decimate=0 / interlaced=0 / bluray_compat=0 / constrained_intra=0 / bframes=12 / b_pyramid=2 / b_adapt=2 / b_bias=0 / direct=3 / weightb=1 / open_gop=0 / weightp=2 / keyint=240 / keyint_min=24 / scenecut=40 / intra_refresh=0 / rc_lookahead=100 / rc=2pass / mbtree=0 / bitrate=1818 / ratetol=1.0 / qcomp=0.60 / qpmin=0 / qpmax=69 / qpstep=4 / cplxblur=20.0 / qblur=0.5 / vbv_maxrate=50000 / vbv_bufsize=62500 / nal_hrd=none / filler=0 / ip_ratio=1.40 / pb_ratio=1.30 / aq=2:0.80 [url=/tag/1/][/url]
Language                                 : English [url=/tag/1/][/url]
Default                                  : Yes [url=/tag/1/][/url]
Forced                                   : No [url=/tag/1/][/url]
Color range                              : Limited [url=/tag/1/][/url]
Color primaries                          : BT.709 [url=/tag/1/][/url]
Transfer characteristics                 : BT.709 [url=/tag/1/][/url]
Matrix coefficients                      : BT.709 [url=/tag/1/][/url]
[url=/tag/1/][/url]
Audio [url=/tag/1/][/url]
ID                                       : 2 [url=/tag/1/][/url]
Format                                   : AC-3 [url=/tag/1/][/url]
Format/Info                              : Audio Coding 3 [url=/tag/1/][/url]
Commercial name                          : Dolby Digital [url=/tag/1/][/url]
Codec ID                                 : A_AC3 [url=/tag/1/][/url]
Duration                                 : 1 h 43 min [url=/tag/1/][/url]
Bit rate mode                            : Constant [url=/tag/1/][/url]
Bit rate                                 : 192 kb/s [url=/tag/1/][/url]
Channel(s)                               : 2 channels [url=/tag/1/][/url]
Channel layout                           : L R [url=/tag/1/][/url]
Sampling rate                            : 48.0 kHz [url=/tag/1/][/url]
Frame rate                               : 31.250 FPS (1536 SPF) [url=/tag/1/][/url]
Compression mode                         : Lossy [url=/tag/1/][/url]
Stream size                              : 142 MiB (10%) [url=/tag/1/][/url]
Title                                    : MVO | Синема УС [url=/tag/1/][/url]
Language                                 : Russian [url=/tag/1/][/url]
Service kind                             : Complete Main [url=/tag/1/][/url]
Default                                  : Yes [url=/tag/1/][/url]
Forced                                   : No [url=/tag/1/][/url]
[url=/tag/1/][/url]
Text #1 [url=/tag/1/][/url]
ID                                       : 3 [url=/tag/1/][/url]
Format                                   : UTF-8 [url=/tag/1/][/url]
Codec ID                                 : S_TEXT/UTF8 [url=/tag/1/][/url]
Codec ID/Info                            : UTF-8 Plain Text [url=/tag/1/][/url]
Duration                                 : 1 h 42 min [url=/tag/1/][/url]
Bit rate                                 : 84 b/s [url=/tag/1/][/url]
Count of elements                        : 1045 [url=/tag/1/][/url]
Stream size                              : 63.6 KiB (0%) [url=/tag/1/][/url]
Language                                 : Russian [url=/tag/1/][/url]
Default                                  : No [url=/tag/1/][/url]
Forced                                   : No [url=/tag/1/][/url]
[url=/tag/1/][/url]
Text #2 [url=/tag/1/][/url]
ID                                       : 4 [url=/tag/1/][/url]
Format                                   : UTF-8 [url=/tag/1/][/url]
Codec ID                                 : S_TEXT/UTF8 [url=/tag/1/][/url]
Codec ID/Info                            : UTF-8 Plain Text [url=/tag/1/][/url]
Duration                                 : 1 h 42 min [url=/tag/1/][/url]
Bit rate                                 : 58 b/s [url=/tag/1/][/url]
Count of elements                        : 1222 [url=/tag/1/][/url]
Stream size                              : 43.5 KiB (0%) [url=/tag/1/][/url]
Title                                    : English (SDH) [url=/tag/1/][/url]
Language                                 : English [url=/tag/1/][/url]
Default                                  : No [url=/tag/1/][/url]
Forced                                   : No [url=/tag/1/][/url]
[url=/tag/1/][/url]



Скриншоты:
[+] Всего файлов в раздаче - 1:
Stargirl (2020) WEB-DLRip-AVC from wolf1245 & MediaBit.mkv1.45 GB

Отзывы
11sancho
Сплошняком одни старгёрлы и супергёрлы,а нормальных гёрлов просто для жизни, почти не осталось.

Зарегистрируйтесь чтобы добавить комментарий.
Загрузите программу
  uTorrent.exe
Обратная связь
Copyleft ©